Thread Rating:
  • 0 Vote(s) - 0 Average
  • 1
  • 2
  • 3
  • 4
  • 5

[-]
Tags
bluray avc 2013 1080p inferno the green hd ma 1 remux dts 5

  The Green Inferno (2013) Bluray Remux 1080p AVC DTS-HD MA 5.1
#1
The Green Inferno (2013) Bluray Remux 1080p AVC DTS-HD MA 5.1

[Image: tt2403021.jpg]

[Image: imdb.png]
https://www.imdb.com/title/tt2403021/

[Image: info.png]
The Green Inferno 2013 EN.mkv
Format                      : Matroska
Format version              : Version 4 / Version 2
File size                   : 25.3 GiB
Duration                    : 1 h 40 min
Overall bit rate mode       : Variable
Overall bit rate            : 35.9 Mb/s
Movie name                  : The Green Inferno
Encoded date                : UTC 2017-09-01 16:05:11
Writing application         : mkvmerge v15.0.0 ('Duel with the Devil') 64-bit
Writing library             : libebml v1.3.5 + libmatroska v1.4.5

Video
ID                          : 1
Format                      : AVC
Format/Info                 : Advanced Video Codec
Format profile              : [email protected]
Format settings             : CABAC / 4 Ref Frames
Format settings, CABAC      : Yes
Format settings, ReFrames   : 4 frames
Codec ID                    : V_MPEG4/ISO/AVC
Duration                    : 1 h 40 min
Bit rate mode               : Variable
Bit rate                    : 31.8 Mb/s
Maximum bit rate            : 35.0 Mb/s
Width                       : 1 920 pixels
Height                      : 1 080 pixels
Display aspect ratio        : 16:9
Frame rate mode             : Constant
Frame rate                  : 23.976 (24000/1001) FPS
Color space                 : YUV
Chroma subsampling          : 4:2:0
Bit depth                   : 8 bits
Scan type                   : Progressive
Bits/(Pixel*Frame)          : 0.639
Stream size                 : 22.4 GiB (89%)
Title                       : The Green Inferno
Language                    : English
Default                     : Yes
Forced                      : No

Audio
ID                          : 2
Format                      : DTS
Format/Info                 : Digital Theater Systems
Format profile              : MA / Core
Codec ID                    : A_DTS
Duration                    : 1 h 40 min
Bit rate mode               : Variable / Constant
Bit rate                    : 4 095 kb/s / 1 509 kb/s
Channel(s)                  : 6 channels
Channel positions           : Front: L C R, Side: L R, LFE
Sampling rate               : 48.0 kHz
Frame rate                  : 93.750 FPS (512 SPF)
Bit depth                   : 24 bits
Compression mode            : Lossless / Lossy
Stream size                 : 2.89 GiB (11%)
Title                       : English
Language                    : English
Default                     : Yes
Forced                      : No

Text #1
ID                          : 3
Format                      : PGS
Muxing mode                 : zlib
Codec ID                    : S_HDMV/PGS
Codec ID/Info               : Picture based subtitle format used on BDs/HD-DVDs
Duration                    : 1 h 36 min
Bit rate                    : 26.2 kb/s
Count of elements           : 2066
Stream size                 : 18.0 MiB (0%)
Title                       : English
Language                    : English
Default                     : No
Forced                      : No

Text #2
ID                          : 4
Format                      : PGS
Muxing mode                 : zlib
Codec ID                    : S_HDMV/PGS
Codec ID/Info               : Picture based subtitle format used on BDs/HD-DVDs
Duration                    : 1 h 32 min
Bit rate                    : 17.9 kb/s
Count of elements           : 1422
Stream size                 : 11.9 MiB (0%)
Title                       : Turkish
Language                    : Turkish
Default                     : Yes
Forced                      : No

[Image: 33980517568_e5938b48a2_b.jpg]

[Image: 46941589625_918caafa03_b.jpg]

[Image: tdown.png]

For Only Vip Members

The Green Inferno (2013) Bluray Remux 1080p AVC DTS-HD MA 5.1 VIP
Reply


Possibly Related Threads…
Thread Author Replies Views Last Post
  The Green Mile (1999) Bluray REMUX 1080p VC-1 TrueHD 5.1-HUSe AbrA 0 192 09-14-2020, 08:44 PM
Last Post: AbrA
  The Green Hornet (2011) Bluray REMUX 1080p AVC DTS-HD MA 5.1-HUSe AbrA 0 176 09-14-2020, 08:39 PM
Last Post: AbrA
  Death Race Inferno (2013) Bluray Remux 1080p AVC DTS-HD MA 5.1 admin 0 862 06-10-2019, 06:05 PM
Last Post: admin

Forum Jump:


Users browsing this thread: 1 Guest(s)

Powered By MyBB
Theme By Audentio Design
Updated By iAndrew | 2018