Thread Rating:
  • 0 Vote(s) - 0 Average
  • 1
  • 2
  • 3
  • 4
  • 5

[-]
Tags
dd bluray avc 1080p the 1940 great 1 remux dictator

 
  The Great Dictator (1940) Bluray Remux 1080p AVC DD 1.0
#1
The Great Dictator (1940) Bluray Remux 1080p AVC DD 1.0

[Image: tt0032553.jpg]

[Image: imdb.png]
https://www.imdb.com/title/tt0032553/

[Image: info.png]
The Great Dictator 1940 EN.mkv
Format                      : Matroska
Format version              : Version 4 / Version 2
File size                   : 23.2 GiB
Duration                    : 2 h 5 min
Overall bit rate mode       : Variable
Overall bit rate            : 26.4 Mb/s
Movie name                  : The Great Dictator
Encoded date                : UTC 2017-01-04 12:51:57
Writing application         : mkvmerge v9.6.0 ('Slave To Your Mind') 64bit
Writing library             : libebml v1.3.4 + libmatroska v1.4.5

Video
ID                          : 1
Format                      : AVC
Format/Info                 : Advanced Video Codec
Format profile              : [email protected]
Format settings             : CABAC / 4 Ref Frames
Format settings, CABAC      : Yes
Format settings, ReFrames   : 4 frames
Codec ID                    : V_MPEG4/ISO/AVC
Duration                    : 2 h 5 min
Bit rate mode               : Variable
Bit rate                    : 25.9 Mb/s
Maximum bit rate            : 37.0 Mb/s
Width                       : 1 920 pixels
Height                      : 1 080 pixels
Display aspect ratio        : 16:9
Frame rate mode             : Constant
Frame rate                  : 23.976 (24000/1001) FPS
Color space                 : YUV
Chroma subsampling          : 4:2:0
Bit depth                   : 8 bits
Scan type                   : Progressive
Bits/(Pixel*Frame)          : 0.521
Stream size                 : 22.7 GiB (98%)
Title                       : The Great Dictator
Language                    : English
Default                     : Yes
Forced                      : No

Audio
ID                          : 2
Format                      : AC-3
Format/Info                 : Audio Coding 3
Codec ID                    : A_AC3
Duration                    : 2 h 5 min
Bit rate mode               : Constant
Bit rate                    : 448 kb/s
Channel(s)                  : 1 channel
Channel positions           : Front: C
Sampling rate               : 48.0 kHz
Frame rate                  : 31.250 FPS (1536 SPF)
Bit depth                   : 16 bits
Compression mode            : Lossy
Stream size                 : 402 MiB (2%)
Title                       : English
Language                    : English
Service kind                : Complete Main
Default                     : Yes
Forced                      : No

Text #1
ID                          : 3
Format                      : PGS
Muxing mode                 : zlib
Codec ID                    : S_HDMV/PGS
Codec ID/Info               : Picture based subtitle format used on BDs/HD-DVDs
Duration                    : 2 h 2 min
Bit rate                    : 26.6 kb/s
Count of elements           : 3647
Stream size                 : 23.3 MiB (0%)
Title                       : English
Language                    : English
Default                     : No
Forced                      : No

Text #2
ID                          : 4
Format                      : PGS
Muxing mode                 : zlib
Codec ID                    : S_HDMV/PGS
Codec ID/Info               : Picture based subtitle format used on BDs/HD-DVDs
Duration                    : 2 h 3 min
Bit rate                    : 12.4 kb/s
Count of elements           : 2602
Stream size                 : 11.0 MiB (0%)
Title                       : Turkish
Language                    : Turkish
Default                     : Yes
Forced                      : No

[Image: YOpmI4.jpg]

[Image: R8aZsd.jpg]

[Image: tdown.png]

For Only Vip Members

The Great Dictator (1940) Bluray Remux 1080p AVC DD 1.0 VIP
Reply


Possibly Related Threads…
Thread Author Replies Views Last Post
  Great White 2021 BluRay 1080p DTS-HD MA 5.1 AVC REMUX-FraMeSToR KAiJu 0 85 06-04-2021, 09:06 AM
Last Post: KAiJu
  The Shop Around the Corner 1940 1080p Blu-ray Remux AVC FLAC 2.0 - KRaLiMaRKo KAiJu 0 281 12-31-2020, 10:10 AM
Last Post: KAiJu
  The Great Gatsby (2013) Bluray REMUX 1080p AVC DTS-HD MA 5.1-HUSe AbrA 0 442 09-14-2020, 08:34 PM
Last Post: AbrA
  Rebecca (1940) Bluray Remux 1080p AVC DD 1.0 admin 0 858 07-28-2019, 06:18 PM
Last Post: admin
  Tinker Bell and the Great Fairy Rescue (2010) Bluray Remux 1080p TR EN AVC DTS-HD MA admin 0 1,450 06-18-2019, 01:19 PM
Last Post: admin

Forum Jump:


Users browsing this thread: 1 Guest(s)

Powered By MyBB
RSS RSS Syndication
Updated By iAndrew | 2021