Thread Rating:
  • 0 Vote(s) - 0 Average
  • 1
  • 2
  • 3
  • 4
  • 5

[-]
Tags
bluray 1977 1080p the 1 vc remux gauntlet 5 truehd

  The Gauntlet (1977) Bluray Remux 1080p VC-1 TrueHD 5.1
#1
The Gauntlet (1977) Bluray Remux 1080p VC-1 TrueHD 5.1

[Image: tt0076070.jpg]

[Image: imdb.png]
https://www.imdb.com/title/tt0076070/

[Image: info.png]
The Gauntlet 1977 EN.mkv
Format                      : Matroska
Format version              : Version 4 / Version 2
File size                   : 17.9 GiB
Duration                    : 1 h 49 min
Overall bit rate mode       : Variable
Overall bit rate            : 23.5 Mb/s
Movie name                  : The Gauntlet
Encoded date                : UTC 2016-05-30 16:36:26
Writing application         : mkvmerge v8.3.0 ('Over the Horizon') 64bit
Writing library             : libebml v1.3.1 + libmatroska v1.4.2

Video
ID                          : 1
Format                      : VC-1
Format profile              : [email protected]
Codec ID                    : V_MS/VFW/FOURCC / WVC1
Codec ID/Hint               : Microsoft
Duration                    : 1 h 49 min
Bit rate                    : 21.9 Mb/s
Width                       : 1 920 pixels
Height                      : 1 080 pixels
Display aspect ratio        : 16:9
Frame rate mode             : Constant
Frame rate                  : 23.976 (24000/1001) FPS
Color space                 : YUV
Chroma subsampling          : 4:2:0
Bit depth                   : 8 bits
Scan type                   : Progressive
Compression mode            : Lossy
Bits/(Pixel*Frame)          : 0.440
Stream size                 : 16.7 GiB (93%)
Title                       : The Gauntlet
Language                    : English
Default                     : Yes
Forced                      : No

Audio
ID                          : 2
Format                      : TrueHD
Codec ID                    : A_TRUEHD
Duration                    : 1 h 49 min
Bit rate mode               : Variable
Bit rate                    : 1 483 kb/s
Maximum bit rate            : 2 871 kb/s
Channel(s)                  : 6 channels
Channel positions           : Front: L C R, Side: L R, LFE
Sampling rate               : 48.0 kHz
Frame rate                  : 1 200.000 FPS (40 spf)
Compression mode            : Lossless
Stream size                 : 1.13 GiB (6%)
Title                       : English
Language                    : English
Default                     : Yes
Forced                      : No

Text #1
ID                          : 3
Format                      : PGS
Muxing mode                 : zlib
Codec ID                    : S_HDMV/PGS
Codec ID/Info               : Picture based subtitle format used on BDs/HD-DVDs
Duration                    : 1 h 45 min
Bit rate                    : 13.7 kb/s
Count of elements           : 2544
Stream size                 : 10.4 MiB (0%)
Title                       : English
Language                    : English
Default                     : No
Forced                      : No

Text #2
ID                          : 4
Format                      : PGS
Muxing mode                 : zlib
Codec ID                    : S_HDMV/PGS
Codec ID/Info               : Picture based subtitle format used on BDs/HD-DVDs
Duration                    : 1 h 43 min
Bit rate                    : 12.1 kb/s
Count of elements           : 2440
Stream size                 : 8.99 MiB (0%)
Title                       : Turkish
Language                    : Turkish
Default                     : Yes
Forced                      : No

[Image: vlcsnap-error303-jpg-8a9010c34c983ed0c8f...64c118.jpg]

[Image: vlcsnap-error423-jpg-0de1d76e5faaa99702c...35a123.jpg]

[Image: tdown.png]

For Only Vip Members

The Gauntlet (1977) Bluray Remux 1080p VC-1 TrueHD 5.1 VIP
Reply


Possibly Related Threads…
Thread Author Replies Views Last Post
  Star Wars Boxset (1977-1983) Bluray Remux 1080p AVC DTS-HD MA 5.1 admin 0 855 07-27-2019, 11:41 AM
Last Post: admin
  Swedish Nympho Slaves (1977) Bluray Remux 1080p AVC DTS-HD MA 5.1 admin 0 910 07-18-2019, 11:29 AM
Last Post: admin
  Annie Hall (1977) Bluray Remux 1080p AVC DTS-HD MA 2.0 admin 0 765 07-17-2019, 01:19 PM
Last Post: admin
  Vodoo Passion (1977) Bluray Remux 1080p AVC DTS 5.1 admin 0 659 07-07-2019, 02:53 PM
Last Post: admin
  Saturday Night Fever (1977) Bluray Remux 1080p AVC TrueHD 5.1 admin 0 787 06-14-2019, 08:57 AM
Last Post: admin

Forum Jump:


Users browsing this thread: 1 Guest(s)

Powered By MyBB
Theme By Audentio Design
Updated By iAndrew | 2018