Thread Rating:
  • 0 Vote(s) - 0 Average
  • 1
  • 2
  • 3
  • 4
  • 5

[-]
Tags
bluray 1989 avc 1080p 1986 the fly hd ma 1 2 remux dts 5

  The Fly 1-2 (1986-1989) Bluray Remux 1080p AVC DTS-HD MA 5.1
#1
The Fly 1-2 (1986-1989) Bluray Remux 1080p AVC DTS-HD MA 5.1

[Image: tt0091064.jpg]

[Image: imdb.png]
https://www.imdb.com/title/tt0091064/
https://www.imdb.com/title/tt0097368/

[Image: info.png]
The Fly 1986 EN.mkv
Format                      : Matroska
Format version              : Version 4 / Version 2
File size                   : 20.4 GiB
Duration                    : 1 h 35 min
Overall bit rate            : 30.5 Mb/s
Movie name                  : The Fly
Encoded date                : UTC 2017-10-15 21:44:41
Writing application         : mkvmerge v17.0.0 ('Be Ur Friend') 64-bit
Writing library             : libebml v1.3.5 + libmatroska v1.4.8

Video
ID                          : 1
Format                      : AVC
Format/Info                 : Advanced Video Codec
Format profile              : [email protected]
Format settings             : CABAC / 3 Ref Frames
Format settings, CABAC      : Yes
Format settings, ReFrames   : 3 frames
Codec ID                    : V_MPEG4/ISO/AVC
Duration                    : 1 h 35 min
Bit rate                    : 26.4 Mb/s
Width                       : 1 920 pixels
Height                      : 1 080 pixels
Display aspect ratio        : 16:9
Frame rate mode             : Constant
Frame rate                  : 23.976 (24000/1001) FPS
Color space                 : YUV
Chroma subsampling          : 4:2:0
Bit depth                   : 8 bits
Scan type                   : Progressive
Bits/(Pixel*Frame)          : 0.532
Stream size                 : 17.7 GiB (87%)
Title                       : The Fly
Language                    : English
Default                     : Yes
Forced                      : No

Audio
ID                          : 2
Format                      : DTS
Format/Info                 : Digital Theater Systems
Format profile              : MA / Core
Codec ID                    : A_DTS
Duration                    : 1 h 35 min
Bit rate mode               : Variable / Constant
Bit rate                    : 4 067 kb/s / 1 509 kb/s
Channel(s)                  : 6 channels
Channel positions           : Front: L C R, Side: L R, LFE
Sampling rate               : 48.0 kHz
Frame rate                  : 93.750 FPS (512 SPF)
Bit depth                   : 24 bits
Compression mode            : Lossless / Lossy
Stream size                 : 2.72 GiB (13%)
Title                       : English
Language                    : English
Default                     : Yes
Forced                      : No

Text #1
ID                          : 3
Format                      : PGS
Muxing mode                 : zlib
Codec ID                    : S_HDMV/PGS
Codec ID/Info               : Picture based subtitle format used on BDs/HD-DVDs
Duration                    : 1 h 30 min
Bit rate                    : 43.5 kb/s
Count of elements           : 1962
Stream size                 : 28.2 MiB (0%)
Title                       : English
Language                    : English
Default                     : No
Forced                      : No

Text #2
ID                          : 4
Format                      : PGS
Muxing mode                 : zlib
Codec ID                    : S_HDMV/PGS
Codec ID/Info               : Picture based subtitle format used on BDs/HD-DVDs
Duration                    : 1 h 30 min
Bit rate                    : 18.2 kb/s
Count of elements           : 1706
Stream size                 : 11.8 MiB (0%)
Title                       : Turkish
Language                    : Turkish
Default                     : Yes
Forced                      : No

[Image: 46934398295_7fb88a5b76_b.jpg]

[Image: 47798586162_74a64e3f70_b.jpg]

[Image: tdown.png]

For Only Vip Members

The Fly 1-2 (1986-1989) Bluray Remux 1080p AVC DTS-HD MA 5.1 VIP
Reply


Possibly Related Threads…
Thread Author Replies Views Last Post
  Little Monsters 1989 1080p Blu-ray Remux AVC FLAC 2.0 - KRaLiMaRKo KAiJu 0 83 10-22-2020, 03:00 PM
Last Post: KAiJu
  Maximum Overdrive 1986 1080p Bluray Remux AVC DTS-HD MA 5.1-4K4U KAiJu 0 78 10-22-2020, 02:50 PM
Last Post: KAiJu
  Steel Magnolias (1989) Bluray Remux 1080p AVC DTS-HD MA 5.1 admin 1 861 10-21-2020, 08:17 AM
Last Post: michael
  Tango And Cash (1989) Bluray REMUX 1080p VC-1 TrueHD 5.1-HUSe AbrA 0 409 07-14-2020, 05:08 PM
Last Post: AbrA
  Armour of God 1-2-3 (1986-2012) Bluray Remux 1080p TR-EN x264-MiXeD admin 0 942 11-08-2019, 06:54 PM
Last Post: admin

Forum Jump:


Users browsing this thread: 1 Guest(s)

Powered By MyBB
Theme By Audentio Design
Updated By iAndrew | 2018