Thread Rating:
  • 0 Vote(s) - 0 Average
  • 1
  • 2
  • 3
  • 4
  • 5

[-]
Tags
2000 final bluray destination avc 1080p the 4 hd ma 1 2 2011 remux dts 5 3

 
  The Final Destination 1-2-3-4-5 (2000-2011) Bluray Remux 1080p AVC DTS-HD MA 5.1
#1
The Final Destination 1-2-3-4-5 (2000-2011) Bluray Remux 1080p AVC DTS-HD MA 5.1

[Image: tt0195714.jpg]

[Image: imdb.png]
https://www.imdb.com/title/tt0195714/
https://www.imdb.com/title/tt0309593/
https://www.imdb.com/title/tt0414982/
https://www.imdb.com/title/tt1144884/
https://www.imdb.com/title/tt1622979/

[Image: info.png]
The Final Destination 04 2009 EN.mkv
Format                      : Matroska
Format version              : Version 4 / Version 2
File size                   : 11.6 GiB
Duration                    : 1 h 21 min
Overall bit rate mode       : Variable
Overall bit rate            : 20.3 Mb/s
Encoded date                : UTC 2014-07-27 23:22:49
Writing application         : mkvmerge v7.0.0 ('Where We Going') 64bit built on Jun  9 2014 15:16:27
Writing library             : libebml v1.3.0 + libmatroska v1.4.1

Video
ID                          : 1
Format                      : AVC
Format/Info                 : Advanced Video Codec
Format profile              : [email protected]
Format settings             : CABAC / 4 Ref Frames
Format settings, CABAC      : Yes
Format settings, ReFrames   : 4 frames
Codec ID                    : V_MPEG4/ISO/AVC
Duration                    : 1 h 21 min
Bit rate mode               : Variable
Bit rate                    : 17.9 Mb/s
Maximum bit rate            : 31.6 Mb/s
Width                       : 1 920 pixels
Height                      : 1 080 pixels
Display aspect ratio        : 16:9
Frame rate mode             : Constant
Frame rate                  : 23.976 (24000/1001) FPS
Color space                 : YUV
Chroma subsampling          : 4:2:0
Bit depth                   : 8 bits
Scan type                   : Progressive
Bits/(Pixel*Frame)          : 0.360
Stream size                 : 10.2 GiB (88%)
Title                       : The Final Destinatin 04
Language                    : English
Default                     : Yes
Forced                      : No

Audio
ID                          : 2
Format                      : DTS
Format/Info                 : Digital Theater Systems
Format profile              : MA / Core
Codec ID                    : A_DTS
Duration                    : 1 h 21 min
Bit rate mode               : Variable / Constant
Bit rate                    : 2 420 kb/s / 1 509 kb/s
Channel(s)                  : 6 channels
Channel positions           : Front: L C R, Side: L R, LFE
Sampling rate               : 48.0 kHz
Frame rate                  : 93.750 FPS (512 SPF)
Bit depth                   : 16 bits
Compression mode            : Lossless / Lossy
Stream size                 : 1.38 GiB (12%)
Title                       : English
Language                    : English
Default                     : Yes
Forced                      : No

Text #1
ID                          : 3
Format                      : PGS
Muxing mode                 : zlib
Codec ID                    : S_HDMV/PGS
Codec ID/Info               : Picture based subtitle format used on BDs/HD-DVDs
Duration                    : 1 h 21 min
Bit rate                    : 12.8 kb/s
Count of elements           : 1936
Stream size                 : 7.42 MiB (0%)
Title                       : English
Language                    : English
Default                     : No
Forced                      : No

Text #2
ID                          : 4
Format                      : PGS
Muxing mode                 : zlib
Codec ID                    : S_HDMV/PGS
Codec ID/Info               : Picture based subtitle format used on BDs/HD-DVDs
Duration                    : 1 h 15 min
Bit rate                    : 11.2 kb/s
Count of elements           : 1606
Stream size                 : 6.06 MiB (0%)
Title                       : Turkish
Language                    : Turkish
Default                     : Yes
Forced                      : No

[Image: rvUFXO.jpg]

[Image: iv0buT.jpg]

[Image: tdown.png]

For Only Vip Members

The Final Destination 1-2-3-4-5 (2000-2011) Bluray Remux 1080p AVC DTS-HD MA 5.1 VIP
Reply


Possibly Related Threads…
Thread Author Replies Views Last Post
  Waking the Dead 2000 1080p BluRay Remux AVC DTS-HD MA 5.1-SPHD KAiJu 0 4 01-26-2022, 09:55 AM
Last Post: KAiJu
  Thomas and the Magic Railroad 2000 1080p Blu-ray Remux AVC DTS-HD MA 5.1-HDT KAiJu 0 12 01-17-2022, 07:42 AM
Last Post: KAiJu
  Tiger Claws (1992-1996-2000) 1080p Blu-ray Remux AVC FLAC 2.0 - KRaLiMaRKo KAiJu 0 31 01-10-2022, 09:27 AM
Last Post: KAiJu
  State and Main 2000 1080p Blu-ray Remux AVC DTS-HD MA 5.1-HDT KAiJu 0 19 12-29-2021, 03:38 PM
Last Post: KAiJu
  The Tigger Movie (2000) 1080p BluRay REMUX AVC DTS-HD MA 5.1-TRiToN AbrA 0 40 12-05-2021, 08:58 PM
Last Post: AbrA

Forum Jump:


Users browsing this thread: 1 Guest(s)

Powered By MyBB
RSS RSS Syndication
Updated By iAndrew | 2022