Thread Rating:
  • 0 Vote(s) - 0 Average
  • 1
  • 2
  • 3
  • 4
  • 5

[-]
Tags
1997 fifth bluray avc 1080p element the 1 remux 5 pcm

  The Fifth Element (1997) Bluray Remux 1080p AVC PCM 5.1
#1
The Fifth Element (1997) Bluray Remux 1080p AVC PCM 5.1

[Image: tt0119116.jpg]

[Image: imdb.png]
https://www.imdb.com/title/tt0119116/

[Image: info.png]
The Fifth Element 1997 EN.mkv
Format                      : Matroska
Format version              : Version 4 / Version 2
File size                   : 28.6 GiB
Duration                    : 2 h 5 min
Overall bit rate mode       : Variable
Overall bit rate            : 32.5 Mb/s
Movie name                  : The Fifth Element
Encoded date                : UTC 2016-10-25 14:20:51
Writing application         : mkvmerge v9.5.0 ('Quiet Fire') 64bit
Writing library             : libebml v1.3.4 + libmatroska v1.4.5

Video
ID                          : 1
Format                      : AVC
Format/Info                 : Advanced Video Codec
Format profile              : [email protected]
Format settings, CABAC      : Yes
Format settings, ReFrames   : 2 frames
Codec ID                    : V_MPEG4/ISO/AVC
Duration                    : 2 h 5 min
Bit rate mode               : Variable
Bit rate                    : 27.9 Mb/s
Width                       : 1 920 pixels
Height                      : 1 080 pixels
Display aspect ratio        : 16:9
Frame rate mode             : Constant
Frame rate                  : 23.976 (24000/1001) FPS
Color space                 : YUV
Chroma subsampling          : 4:2:0
Bit depth                   : 8 bits
Scan type                   : Progressive
Bits/(Pixel*Frame)          : 0.561
Stream size                 : 24.5 GiB (86%)
Title                       : The Fifth Element
Language                    : English
Default                     : Yes
Forced                      : No

Audio
ID                          : 2
Format                      : PCM
Codec ID                    : A_PCM/INT/LIT
Duration                    : 2 h 5 min
Bit rate mode               : Constant
Bit rate                    : 4 608 kb/s
Channel(s)                  : 6 channels
Sampling rate               : 48.0 kHz
Frame rate                  : 32.000 FPS (1500 spf)
Bit depth                   : 16 bits
Stream size                 : 4.05 GiB (14%)
Title                       : English
Language                    : English
Default                     : Yes
Forced                      : No

Text #1
ID                          : 3
Format                      : PGS
Muxing mode                 : zlib
Codec ID                    : S_HDMV/PGS
Codec ID/Info               : Picture based subtitle format used on BDs/HD-DVDs
Duration                    : 1 h 58 min
Bit rate                    : 12.9 kb/s
Count of elements           : 2844
Stream size                 : 10.9 MiB (0%)
Title                       : English
Language                    : English
Default                     : No
Forced                      : No

Text #2
ID                          : 4
Format                      : PGS
Muxing mode                 : zlib
Codec ID                    : S_HDMV/PGS
Codec ID/Info               : Picture based subtitle format used on BDs/HD-DVDs
Duration                    : 1 h 58 min
Bit rate                    : 11.8 kb/s
Count of elements           : 2610
Stream size                 : 9.95 MiB (0%)
Title                       : Turkish
Language                    : Turkish
Default                     : Yes
Forced                      : No

[Image: vlcsnap-error271-jpg-5cd0a9584e962c13377...36bb88.jpg]

[Image: vlcsnap-error526-jpg-55d66c576dd70d789c1...1062c7.jpg]

[Image: tdown.png]

For Only Vip Members

The Fifth Element (1997) Bluray Remux 1080p AVC PCM 5.1 VIP
Reply


Possibly Related Threads…
Thread Author Replies Views Last Post
  Contact (1997) Bluray REMUX 1080p EN-TR VC-1 TrueHD 5.1[ AbrA 0 107 11-11-2020, 11:51 AM
Last Post: AbrA
  Speed 2 Cruise Control (1997) Bluray REMUX 1080p AVC DTS-HD MA 5.1-HUSe AbrA 0 511 06-23-2020, 01:51 PM
Last Post: AbrA
  The Postman (1997) Bluray Remux 1080p VC-1 5.1 admin 0 733 08-31-2019, 06:59 AM
Last Post: admin
  Lost Highway (1997) Bluray Remux 1080p AVC DTS-HD MA 5.1 admin 0 745 08-23-2019, 01:46 PM
Last Post: admin
  Red Corner (1997) Bluray Remux 1080p DD 5.1 admin 0 635 08-10-2019, 07:10 AM
Last Post: admin

Forum Jump:


Users browsing this thread: 1 Guest(s)

Powered By MyBB
Theme By Audentio Design
Updated By iAndrew | 2018