Thread Rating:
  • 0 Vote(s) - 0 Average
  • 1
  • 2
  • 3
  • 4
  • 5

[-]
Tags
bluray fan 1996 avc 1080p the hd ma 1 remux dts 5

 
  The Fan (1996) Bluray Remux 1080p AVC DTS-HD MA 5.1
#1
The Fan (1996) Bluray Remux 1080p AVC DTS-HD MA 5.1

[Image: tt0116277.jpg]

[Image: imdb.png]
https://www.imdb.com/title/tt0116277/

[Image: info.png]
The Fan 1996 EN.mkv
Format                      : Matroska
Format version              : Version 4 / Version 2
File size                   : 17.7 GiB
Duration                    : 1 h 56 min
Overall bit rate mode       : Variable
Overall bit rate            : 21.7 Mb/s
Movie name                  : The Fan
Encoded date                : UTC 2018-02-20 19:17:24
Writing application         : mkvmerge v20.0.0 ('I Am The Sun') 64-bit
Writing library             : libebml v1.3.5 + libmatroska v1.4.8

Video
ID                          : 1
Format                      : AVC
Format/Info                 : Advanced Video Codec
Format profile              : [email protected]
Format settings             : CABAC / 2 Ref Frames
Format settings, CABAC      : Yes
Format settings, ReFrames   : 2 frames
Format settings, GOP        : M=1, N=5
Codec ID                    : V_MPEG4/ISO/AVC
Duration                    : 1 h 56 min
Bit rate mode               : Variable
Bit rate                    : 19.4 Mb/s
Maximum bit rate            : 19.9 Mb/s
Width                       : 1 920 pixels
Height                      : 1 080 pixels
Display aspect ratio        : 16:9
Frame rate mode             : Constant
Frame rate                  : 23.976 (24000/1001) FPS
Color space                 : YUV
Chroma subsampling          : 4:2:0
Bit depth                   : 8 bits
Scan type                   : Progressive
Bits/(Pixel*Frame)          : 0.390
Stream size                 : 15.8 GiB (89%)
Title                       : The Fan
Language                    : English
Default                     : Yes
Forced                      : No

Audio
ID                          : 2
Format                      : DTS
Format/Info                 : Digital Theater Systems
Format profile              : MA / Core
Codec ID                    : A_DTS
Duration                    : 1 h 56 min
Bit rate mode               : Variable / Constant
Bit rate                    : 2 324 kb/s / 1 509 kb/s
Channel(s)                  : 6 channels
Channel positions           : Front: L C R, Side: L R, LFE
Sampling rate               : 48.0 kHz
Frame rate                  : 93.750 FPS (512 SPF)
Bit depth                   : 16 bits
Compression mode            : Lossless / Lossy
Stream size                 : 1.89 GiB (11%)
Title                       : English
Language                    : English
Default                     : Yes
Forced                      : No

Text
ID                          : 3
Format                      : PGS
Muxing mode                 : zlib
Codec ID                    : S_HDMV/PGS
Codec ID/Info               : Picture based subtitle format used on BDs/HD-DVDs
Duration                    : 1 h 49 min
Bit rate                    : 36.9 kb/s
Count of elements           : 2692
Stream size                 : 29.0 MiB (0%)
Title                       : Turkish
Language                    : Turkish
Default                     : Yes
Forced                      : No

[Image: K99HkD.jpg]

[Image: mevqfD.jpg]

[Image: tdown.png]

For Only Vip Members

The Fan (1996) Bluray Remux 1080p AVC DTS-HD MA 5.1 VIP
Reply


Possibly Related Threads…
Thread Author Replies Views Last Post
  Fargo (1996) Remastered Bluray REMUX 1080p AVC DTS-HD MA 5.1-HUS AbrA 0 17 07-23-2021, 01:45 PM
Last Post: AbrA
  DragonHeart (1996) Bluray REMUX 1080p VC-1 DTS-HD MA 5.1-HUS AbrA 0 24 07-12-2021, 01:53 PM
Last Post: AbrA
  Stealing Beauty 1996 1080p Blu-ray Remux AVC DTS-HD MA 5.1 - KRaLiMaRKo KAiJu 0 40 07-11-2021, 06:19 PM
Last Post: KAiJu
  The Trigger Effect 1996 1080p Blu-ray Remux AVC DTS-HD MA 5.1 - KRaLiMaRKo KAiJu 0 32 06-23-2021, 11:13 AM
Last Post: KAiJu
  Fled 1996 1080p Blu-ray Remux AVC DTS-HD MA 5.1 - KRaLiMaRKo KAiJu 0 32 06-09-2021, 06:59 AM
Last Post: KAiJu

Forum Jump:


Users browsing this thread: 1 Guest(s)

Powered By MyBB
RSS RSS Syndication
Updated By iAndrew | 2021