Thread Rating:
  • 0 Vote(s) - 0 Average
  • 1
  • 2
  • 3
  • 4
  • 5

[-]
Tags
bluray expendables 810p x264 1080p the triology prodji 2014 2010 dts

  The Expendables Triology (2010-2014) BluRay 810p-1080p DTS x264-PRoDJi
#1
The Expendables Triology (2010-2014) BluRay 810p-1080p DTS x264-PRoDJi

[Image: expendables.jpg]

[Image: imdb.png]
https://www.imdb.com/title/tt1320253/
https://www.imdb.com/title/tt1764651/
https://www.imdb.com/title/tt2333784/

[Image: info.png]
Format : Matroska
Format version : Version 2
File size : 4.90 GiB
Duration : 1 h 43 min
Overall bit rate : 6 786 kb/s
Encoded date : UTC 2011-02-24 07:29:43
Writing application : mkvmerge v4.4.0 ('Die Wiederkehr') built on Oct 31 2010 21:52:48
Writing library : libebml v1.0.0 + libmatroska v1.0.0

Video
ID : 1
Format : AVC
Format/Info : Advanced Video Codec
Format profile : High@L4.1
Format settings : CABAC / 9 Ref Frames
Format settings, CABAC : Yes
Format settings, RefFrames : 9 frames
Codec ID : V_MPEG4/ISO/AVC
Duration : 1 h 43 min
Bit rate : 5 274 kb/s
Width : 1 440 pixels
Height : 600 pixels
Display aspect ratio : 2.40:1
Frame rate mode : Constant
Frame rate : 23.976 FPS
Color space : YUV
Chroma subsampling : 4:2:0
Bit depth : 8 bits
Scan type : Progressive
Bits/(Pixel*Frame) : 0.255
Stream size : 3.72 GiB (76%)
Title : @5274Kbps High Profiles @L4.1
Writing library : x264 core 98 r1649 c54c47d
Encoding settings : cabac=1 / ref=9 / deblock=1:-2:-2 / analyse=0x3:0x113 / me=hex / subme=9 / psy=1 / psy_rd=1.00:0.00 / mixed_ref=1 / me_range=16 / chroma_me=1 / trellis=0 / 8x8dct=1 / cqm=2 / deadzone=21,11 / fast_pskip=1 / chroma_qp_offset=-2 / threads=2 / sliced_threads=0 / nr=0 / decimate=0 / interlaced=0 / constrained_intra=0 / bframes=16 / b_pyramid=0 / b_adapt=1 / b_bias=0 / direct=1 / weightb=1 / weightp=2 / keyint=250 / keyint_min=25 / scenecut=40 / intra_refresh=0 / rc_lookahead=40 / rc=2pass / mbtree=1 / bitrate=5274 / ratetol=2.0 / qcomp=0.60 / qpmin=10 / qpmax=51 / qpstep=4 / cplxblur=20.0 / qblur=0.5 / vbv_maxrate=38000 / vbv_bufsize=30000 / ip_ratio=1.40 / aq=1:1.00 / nal_hrd=none
Language : English
Default : Yes
Forced : No

Audio #1
ID : 2
Format : DTS
Format/Info : Digital Theater Systems
Codec ID : A_DTS
Duration : 1 h 43 min
Bit rate mode : Constant
Bit rate : 755 kb/s
Channel(s) : 6 channels
Channel layout : C L R Ls Rs LFE
Sampling rate : 48.0 kHz
Frame rate : 93.750 FPS (512 SPF)
Bit depth : 24 bits
Compression mode : Lossy
Stream size : 558 MiB (11%)
Title : DTS@768Kbps 6 chnls
Language : English
Default : Yes
Forced : No

Audio #2
ID : 3
Format : DTS ES XXCH
Format/Info : Digital Theater Systems
Commercial name : DTS-ES Discrete
Codec ID : A_DTS
Duration : 1 h 43 min
Bit rate mode : Constant
Bit rate : 755 kb/s
Channel(s) : 6 channels
Channel(s)_Original : 7 channels
Channel layout : C L R Ls Rs Cb LFE
Sampling rate : 48.0 kHz
Frame rate : 93.750 FPS (512 SPF)
Bit depth : 24 bits
Compression mode : Lossy
Stream size : 558 MiB (11%)
Title : DTS@768Kbps 7 chnls
Language : Turkish
Default : No
Forced : No

Text #1
ID : 4
Format : UTF-8
Codec ID : S_TEXT/UTF8
Codec ID/Info : UTF-8 Plain Text
Language : English
Default : Yes
Forced : No

Text #2
ID : 5
Format : UTF-8
Codec ID : S_TEXT/UTF8
Codec ID/Info : UTF-8 Plain Text
Language : Turkish
Default : No
Forced : No

Text #3
ID : 6
Format : UTF-8
Codec ID : S_TEXT/UTF8
Codec ID/Info : UTF-8 Plain Text
Language : Polish
Default : No
Forced : No

Text #4
ID : 7
Format : UTF-8
Codec ID : S_TEXT/UTF8
Codec ID/Info : UTF-8 Plain Text
Language : Swedish
Default : No
Forced : No

Text #5
ID : 8
Format : UTF-8
Codec ID : S_TEXT/UTF8
Codec ID/Info : UTF-8 Plain Text
Title : CHS
Language : Chinese
Default : No
Forced : No

Text #6
ID : 9
Format : UTF-8
Codec ID : S_TEXT/UTF8
Codec ID/Info : UTF-8 Plain Text
Title : CHT
Language : Chinese
Default : No
Forced : No

Text #7
ID : 10
Format : UTF-8
Codec ID : S_TEXT/UTF8
Codec ID/Info : UTF-8 Plain Text
Language : Hebrew
Default : No
Forced : No

Text #8
ID : 11
Format : UTF-8
Codec ID : S_TEXT/UTF8
Codec ID/Info : UTF-8 Plain Text
Language : Dutch
Default : No
Forced : No

Text #9
ID : 12
Format : UTF-8
Codec ID : S_TEXT/UTF8
Codec ID/Info : UTF-8 Plain Text
Language : Romanian
Default : No
Forced : No

Text #10
ID : 13
Format : UTF-8
Codec ID : S_TEXT/UTF8
Codec ID/Info : UTF-8 Plain Text
Language : Slovenian
Default : No
Forced : No

Text #11
ID : 14
Format : UTF-8
Codec ID : S_TEXT/UTF8
Codec ID/Info : UTF-8 Plain Text
Language : Spanish
Default : No
Forced : No

[Image: The-Expendables2010-3.png]

[Image: The-Expendables2010-8.png]

[Image: tdown.png]

For Only Vip Members
Reply
#2
Thanxxxxxxxxxxxxxx
Reply


Possibly Related Threads...
Thread Author Replies Views Last Post
  Smokin Aces Duology (2006-2010) BluRay 1080p DTS x264-PRoDJi admin 0 93 12-07-2018, 11:17 AM
Last Post: admin
  Rosemarys Baby (2014) Part 1-2 BluRay 1080p DTS x264-PRoDJi admin 0 79 12-05-2018, 10:11 PM
Last Post: admin
  Crocodile Dundee (1986-1988) Duology BluRay 1080p DTS x264-PRoDJi admin 0 95 12-02-2018, 03:06 PM
Last Post: admin
  Taxi Quadrilogy (1998-2007) BluRay 810p DTS x264-PRoDJi admin 0 107 11-17-2018, 11:45 AM
Last Post: admin
  Men in Black Trilogy (1997-2012) BluRay 810p DTS x264-PRoDJi admin 0 123 11-17-2018, 11:35 AM
Last Post: admin

Forum Jump:


Users browsing this thread: 1 Guest(s)

Powered By MyBB
Theme By Audentio Design
Updated By iAndrew | 2018