Thread Rating:
  • 0 Vote(s) - 0 Average
  • 1
  • 2
  • 3
  • 4
  • 5

[-]
Tags
exorcist bluray x264 1080p the prodji movie 2005 dts collection 1973

  The Exorcist (1973-2005) Movie Collection BluRay 1080p DTS x264-PRoDJi
#1
The Exorcist (1973-2005) Movie Collection BluRay 1080p DTS x264-PRoDJi

[Image: exorcist.jpg]

[Image: imdb.png]
https://www.imdb.com/title/tt0070047/
https://www.imdb.com/title/tt0076009/
https://www.imdb.com/title/tt0099528/
https://www.imdb.com/title/tt0204313/
https://www.imdb.com/title/tt0449086/

[Image: info.png]
Format : Matroska
Format version : Version 4
File size : 12.5 GiB
Duration : 2 h 12 min
Overall bit rate : 13.6 Mb/s
Encoded date : UTC 2017-05-30 10:42:25
Writing application : mkvmerge v12.0.0 ('Trust / Lust') 64bit
Writing library : libebml v1.3.4 + libmatroska v1.4.5

Video
ID : 1
Format : AVC
Format/Info : Advanced Video Codec
Format profile : [email protected]
Format settings : CABAC / 3 Ref Frames
Format settings, CABAC : Yes
Format settings, RefFrames : 3 frames
Codec ID : V_MPEG4/ISO/AVC
Duration : 2 h 12 min
Bit rate : 11.3 Mb/s
Width : 1 920 pixels
Height : 1 080 pixels
Display aspect ratio : 16:9
Frame rate mode : Constant
Frame rate : 23.976 (24000/1001) FPS
Color space : YUV
Chroma subsampling : 4:2:0
Bit depth : 8 bits
Scan type : Progressive
Bits/(Pixel*Frame) : 0.227
Stream size : 10.4 GiB (83%)
Title : AVC PRoDJi
Writing library : x264 core 148 r2744 b97ae06
Encoding settings : cabac=1 / ref=4 / deblock=1:-1:-1 / analyse=0x3:0x113 / me=umh / subme=9 / psy=1 / psy_rd=1.00:0.00 / mixed_ref=1 / me_range=24 / chroma_me=1 / trellis=2 / 8x8dct=1 / cqm=2 / deadzone=21,11 / fast_pskip=1 / chroma_qp_offset=-5 / threads=12 / lookahead_threads=1 / sliced_threads=0 / nr=0 / decimate=0 / interlaced=0 / bluray_compat=0 / constrained_intra=0 / bframes=5 / b_pyramid=1 / b_adapt=2 / b_bias=2 / direct=3 / weightb=1 / open_gop=0 / weightp=2 / keyint=230 / keyint_min=22 / scenecut=40 / intra_refresh=0 / rc_lookahead=45 / rc=2pass / mbtree=1 / bitrate=11299 / ratetol=1.0 / qcomp=0.60 / qpmin=10 / qpmax=41 / qpstep=4 / cplxblur=20.0 / qblur=0.5 / ip_ratio=1.30 / aq=1:1.00
Language : English
Default : Yes
Forced : No

Audio #1
ID : 2
Format : DTS ES
Format/Info : Digital Theater Systems
Commercial name : DTS-ES Matrix
Codec ID : A_DTS
Duration : 2 h 12 min
Bit rate mode : Constant
Bit rate : 1 509 kb/s
Channel(s) : 6 channels
Channel(s)_Original : 7 channels
Channel layout : C L R Ls Rs Cb LFE
Sampling rate : 48.0 kHz
Frame rate : 93.750 FPS (512 SPF)
Bit depth : 24 bits
Compression mode : Lossy
Stream size : 1.40 GiB (11%)
Title : English [email protected] 6 chnls
Language : English
Default : Yes
Forced : No

Audio #2
ID : 3
Format : AC-3
Format/Info : Audio Coding 3
Commercial name : Dolby Digital
Codec ID : A_AC3
Duration : 2 h 12 min
Bit rate mode : Constant
Bit rate : 224 kb/s
Channel(s) : 2 channels
Channel layout : L R
Sampling rate : 48.0 kHz
Frame rate : 31.250 FPS (1536 SPF)
Bit depth : 16 bits
Compression mode : Lossy
Delay relative to video : 500 ms
Stream size : 212 MiB (2%)
Title : 192Kbps 2 chnls AC3 Turkish
Language : Turkish
Service kind : Complete Main
Default : No
Forced : No

Audio #3
ID : 4
Format : AC-3
Format/Info : Audio Coding 3
Commercial name : Dolby Digital
Codec ID : A_AC3
Duration : 2 h 12 min
Bit rate mode : Constant
Bit rate : 192 kb/s
Channel(s) : 2 channels
Channel layout : L R
Sampling rate : 48.0 kHz
Frame rate : 31.250 FPS (1536 SPF)
Bit depth : 16 bits
Compression mode : Lossy
Stream size : 182 MiB (1%)
Title : Commentary by William Friedkin
Language : English
Service kind : Complete Main
Default : No
Forced : No

Text #1
ID : 5
Format : PGS
Muxing mode : zlib
Codec ID : S_HDMV/PGS
Codec ID/Info : Picture based subtitle format used on BDs/HD-DVDs
Duration : 2 h 10 min
Bit rate : 12.6 kb/s
Count of elements : 2984
Stream size : 11.8 MiB (0%)
Title : English
Language : English
Default : Yes
Forced : No

Text #2
ID : 6
Format : PGS
Muxing mode : zlib
Codec ID : S_HDMV/PGS
Codec ID/Info : Picture based subtitle format used on BDs/HD-DVDs
Duration : 2 h 11 min
Bit rate : 9 851 b/s
Count of elements : 2474
Stream size : 9.26 MiB (0%)
Title : Turkish
Language : Turkish
Default : No
Forced : No

Text #3
ID : 7
Format : PGS
Muxing mode : zlib
Codec ID : S_HDMV/PGS
Codec ID/Info : Picture based subtitle format used on BDs/HD-DVDs
Duration : 2 h 6 min
Bit rate : 9 055 b/s
Count of elements : 2183
Stream size : 8.17 MiB (0%)
Title : Japanese
Language : Japanese
Default : No
Forced : No

Text #4
ID : 8
Format : PGS
Muxing mode : zlib
Codec ID : S_HDMV/PGS
Codec ID/Info : Picture based subtitle format used on BDs/HD-DVDs
Duration : 2 h 8 min
Bit rate : 18.8 kb/s
Count of elements : 2392
Stream size : 17.2 MiB (0%)
Title : Japanese
Language : Japanese
Default : No
Forced : No

Text #5
ID : 9
Format : PGS
Muxing mode : zlib
Codec ID : S_HDMV/PGS
Codec ID/Info : Picture based subtitle format used on BDs/HD-DVDs
Duration : 1 h 35 min
Bit rate : 230 b/s
Count of elements : 78
Stream size : 162 KiB (0%)
Title : Japanese
Language : Japanese
Default : No
Forced : No

Text #6
ID : 10
Format : PGS
Muxing mode : zlib
Codec ID : S_HDMV/PGS
Codec ID/Info : Picture based subtitle format used on BDs/HD-DVDs
Duration : 2 h 11 min
Bit rate : 9 532 b/s
Count of elements : 2464
Stream size : 8.96 MiB (0%)
Title : French
Language : French
Default : No
Forced : No

Text #7
ID : 11
Format : PGS
Muxing mode : zlib
Codec ID : S_HDMV/PGS
Codec ID/Info : Picture based subtitle format used on BDs/HD-DVDs
Duration : 2 h 11 min
Bit rate : 10.7 kb/s
Count of elements : 2884
Stream size : 10.1 MiB (0%)
Title : German
Language : German
Default : No
Forced : No

Text #8
ID : 12
Format : PGS
Muxing mode : zlib
Codec ID : S_HDMV/PGS
Codec ID/Info : Picture based subtitle format used on BDs/HD-DVDs
Duration : 2 h 11 min
Bit rate : 11.3 kb/s
Count of elements : 3016
Stream size : 10.7 MiB (0%)
Title : Italian
Language : Italian
Default : No
Forced : No

Text #9
ID : 13
Format : PGS
Muxing mode : zlib
Codec ID : S_HDMV/PGS
Codec ID/Info : Picture based subtitle format used on BDs/HD-DVDs
Duration : 2 h 11 min
Bit rate : 10.1 kb/s
Count of elements : 2688
Stream size : 9.44 MiB (0%)
Title : Spanish
Language : Spanish
Default : No
Forced : No

Text #10
ID : 14
Format : PGS
Muxing mode : zlib
Codec ID : S_HDMV/PGS
Codec ID/Info : Picture based subtitle format used on BDs/HD-DVDs
Duration : 2 h 10 min
Bit rate : 8 871 b/s
Count of elements : 2192
Stream size : 8.28 MiB (0%)
Title : Dutch
Language : Dutch
Default : No
Forced : No

Text #11
ID : 15
Format : PGS
Muxing mode : zlib
Codec ID : S_HDMV/PGS
Codec ID/Info : Picture based subtitle format used on BDs/HD-DVDs
Duration : 2 h 11 min
Bit rate : 14.6 kb/s
Count of elements : 2632
Stream size : 13.7 MiB (0%)
Title : Chinese
Language : Chinese
Default : No
Forced : No

Text #12
ID : 16
Format : PGS
Muxing mode : zlib
Codec ID : S_HDMV/PGS
Codec ID/Info : Picture based subtitle format used on BDs/HD-DVDs
Duration : 2 h 11 min
Bit rate : 8 749 b/s
Count of elements : 2592
Stream size : 8.22 MiB (0%)
Title : Korean
Language : Korean
Default : No
Forced : No

Text #13
ID : 17
Format : PGS
Muxing mode : zlib
Codec ID : S_HDMV/PGS
Codec ID/Info : Picture based subtitle format used on BDs/HD-DVDs
Duration : 2 h 11 min
Bit rate : 9 578 b/s
Count of elements : 2376
Stream size : 9.00 MiB (0%)
Title : Spanish
Language : Spanish
Default : No
Forced : No

Text #14
ID : 18
Format : PGS
Muxing mode : zlib
Codec ID : S_HDMV/PGS
Codec ID/Info : Picture based subtitle format used on BDs/HD-DVDs
Duration : 2 h 11 min
Bit rate : 11.3 kb/s
Count of elements : 2564
Stream size : 10.6 MiB (0%)
Title : Portuguese
Language : Portuguese
Default : No
Forced : No

Text #15
ID : 19
Format : PGS
Muxing mode : zlib
Codec ID : S_HDMV/PGS
Codec ID/Info : Picture based subtitle format used on BDs/HD-DVDs
Duration : 2 h 11 min
Bit rate : 9 223 b/s
Count of elements : 2422
Stream size : 8.67 MiB (0%)
Title : Croatian
Language : Croatian
Default : No
Forced : No

Text #16
ID : 20
Format : PGS
Muxing mode : zlib
Codec ID : S_HDMV/PGS
Codec ID/Info : Picture based subtitle format used on BDs/HD-DVDs
Duration : 2 h 11 min
Bit rate : 9 243 b/s
Count of elements : 2460
Stream size : 8.68 MiB (0%)
Title : Czech
Language : Czech
Default : No
Forced : No

Text #17
ID : 21
Format : PGS
Muxing mode : zlib
Codec ID : S_HDMV/PGS
Codec ID/Info : Picture based subtitle format used on BDs/HD-DVDs
Duration : 2 h 11 min
Bit rate : 8 764 b/s
Count of elements : 1830
Stream size : 8.24 MiB (0%)
Title : Danish
Language : Danish
Default : No
Forced : No

Text #18
ID : 22
Format : PGS
Muxing mode : zlib
Codec ID : S_HDMV/PGS
Codec ID/Info : Picture based subtitle format used on BDs/HD-DVDs
Duration : 2 h 11 min
Bit rate : 8 176 b/s
Count of elements : 1730
Stream size : 7.68 MiB (0%)
Title : Estonian
Language : Estonian
Default : No
Forced : No

Text #19
ID : 23
Format : PGS
Muxing mode : zlib
Codec ID : S_HDMV/PGS
Codec ID/Info : Picture based subtitle format used on BDs/HD-DVDs
Duration : 2 h 11 min
Bit rate : 8 300 b/s
Count of elements : 2086
Stream size : 7.80 MiB (0%)
Title : Finnish
Language : Finnish
Default : No
Forced : No

Text #20
ID : 24
Format : PGS
Muxing mode : zlib
Codec ID : S_HDMV/PGS
Codec ID/Info : Picture based subtitle format used on BDs/HD-DVDs
Duration : 2 h 11 min
Bit rate : 10.1 kb/s
Count of elements : 2558
Stream size : 9.48 MiB (0%)
Title : Modern Greek
Language : Greek
Default : No
Forced : No

Text #21
ID : 25
Format : PGS
Muxing mode : zlib
Codec ID : S_HDMV/PGS
Codec ID/Info : Picture based subtitle format used on BDs/HD-DVDs
Duration : 2 h 10 min
Bit rate : 8 049 b/s
Count of elements : 2378
Stream size : 7.51 MiB (0%)
Title : Hebrew
Language : Hebrew
Default : No
Forced : No

Text #22
ID : 26
Format : PGS
Muxing mode : zlib
Codec ID : S_HDMV/PGS
Codec ID/Info : Picture based subtitle format used on BDs/HD-DVDs
Duration : 2 h 11 min
Bit rate : 9 938 b/s
Count of elements : 2502
Stream size : 9.34 MiB (0%)
Title : Hungarian
Language : Hungarian
Default : No
Forced : No

Text #23
ID : 27
Format : PGS
Muxing mode : zlib
Codec ID : S_HDMV/PGS
Codec ID/Info : Picture based subtitle format used on BDs/HD-DVDs
Duration : 2 h 10 min
Bit rate : 9 420 b/s
Count of elements : 2424
Stream size : 8.79 MiB (0%)
Title : Icelandic
Language : Icelandic
Default : No
Forced : No

Text #24
ID : 28
Format : PGS
Muxing mode : zlib
Codec ID : S_HDMV/PGS
Codec ID/Info : Picture based subtitle format used on BDs/HD-DVDs
Duration : 2 h 11 min
Bit rate : 8 582 b/s
Count of elements : 2406
Stream size : 8.06 MiB (0%)
Title : Norwegian
Language : Norwegian
Default : No
Forced : No

Text #25
ID : 29
Format : PGS
Muxing mode : zlib
Codec ID : S_HDMV/PGS
Codec ID/Info : Picture based subtitle format used on BDs/HD-DVDs
Duration : 2 h 11 min
Bit rate : 10.6 kb/s
Count of elements : 2434
Stream size : 9.95 MiB (0%)
Title : Polish
Language : Polish
Default : No
Forced : No

Text #26
ID : 30
Format : PGS
Muxing mode : zlib
Codec ID : S_HDMV/PGS
Codec ID/Info : Picture based subtitle format used on BDs/HD-DVDs
Duration : 2 h 11 min
Bit rate : 10.0 kb/s
Count of elements : 2348
Stream size : 9.44 MiB (0%)
Title : Portuguese
Language : Portuguese
Default : No
Forced : No

Text #27
ID : 31
Format : PGS
Muxing mode : zlib
Codec ID : S_HDMV/PGS
Codec ID/Info : Picture based subtitle format used on BDs/HD-DVDs
Duration : 2 h 11 min
Bit rate : 9 428 b/s
Count of elements : 2590
Stream size : 8.86 MiB (0%)
Title : Romanian
Language : Raeto-Romance
Default : No
Forced : No

Text #28
ID : 32
Format : PGS
Muxing mode : zlib
Codec ID : S_HDMV/PGS
Codec ID/Info : Picture based subtitle format used on BDs/HD-DVDs
Duration : 2 h 11 min
Bit rate : 9 901 b/s
Count of elements : 2472
Stream size : 9.30 MiB (0%)
Title : Russian
Language : Russian
Default : No
Forced : No

Text #29
ID : 33
Format : PGS
Muxing mode : zlib
Codec ID : S_HDMV/PGS
Codec ID/Info : Picture based subtitle format used on BDs/HD-DVDs
Duration : 2 h 11 min
Bit rate : 9 321 b/s
Count of elements : 2590
Stream size : 8.76 MiB (0%)
Title : Slovenian
Language : Slovenian
Default : No
Forced : No

Text #30
ID : 34
Format : PGS
Muxing mode : zlib
Codec ID : S_HDMV/PGS
Codec ID/Info : Picture based subtitle format used on BDs/HD-DVDs
Duration : 2 h 10 min
Bit rate : 8 326 b/s
Count of elements : 2378
Stream size : 7.77 MiB (0%)
Title : Swedish
Language : Swedish
Default : No
Forced : No

Text #31
ID : 35
Format : PGS
Muxing mode : zlib
Codec ID : S_HDMV/PGS
Codec ID/Info : Picture based subtitle format used on BDs/HD-DVDs
Duration : 2 h 11 min
Bit rate : 11.1 kb/s
Count of elements : 2592
Stream size : 10.5 MiB (0%)
Title : Thai
Language : Thai
Default : No
Forced : No

Text #32
ID : 36
Format : PGS
Muxing mode : zlib
Codec ID : S_HDMV/PGS
Codec ID/Info : Picture based subtitle format used on BDs/HD-DVDs
Duration : 2 h 12 min
Bit rate : 22.9 kb/s
Count of elements : 3784
Stream size : 21.7 MiB (0%)
Title : Chinese
Language : Chinese
Default : No
Forced : No

Menu
00:00:00.000 : en:Iraq: Interesting Finds
00:04:19.676 : en:"Something I Must Do"
00:08:46.609 : en:Face To Face
00:10:30.380 : en:Rats In The Attic
00:13:04.784 : en:On The Set
00:15:00.483 : en:Chris' Walk Home (Tubular Bells)
00:16:14.432 : en:Mother And Daughter
00:17:44.438 : en:Karras Visits His Mother
00:22:10.412 : en:The Ouija Board
00:23:37.374 : en:Birthday Ideas
00:25:56.346 : en:Lost And Unconnected
00:27:52.504 : en:Attic Noises
00:31:06.073 : en:Chapel Desecration
00:32:15.517 : en:Nervous Disorder
00:36:40.532 : en:The Hospital
00:39:16.062 : en:Chris' Party
00:41:16.140 : en:"You're Gonna Die Up There"
00:43:34.779 : en:"Make It Stop!"
00:44:48.352 : en:And I Shall Be Healed
00:47:50.659 : en:Temporal Lobe Diagnosis
00:52:14.465 : en:"The Sow Is Mine!"
00:54:16.795 : enTongueathological State?
00:57:42.417 : enBig Grineath Strikes; Down The Stairs
01:01:02.492 : enTonguesychiatric Exam
01:02:54.145 : en:From Garfield To Mineo
01:08:07.083 : en:Heard Of Exorcism?
01:10:32.228 : en:Scene Of The Crime
01:13:05.423 : en:Kinderman's Theory
01:17:57.256 : en:"Do You Know What She Did?"
01:19:33.686 : en:Just Help Her
01:23:39.598 : en:Unwelcome Visitor
01:25:55.317 : en:That Thing Upstairs
01:29:12.430 : en:Holy Water And Tongues
01:32:56.821 : en:Chris' Realization
01:35:31.476 : en:English In Reverse
01:36:41.462 : en:Body Language
01:37:50.698 : en:Choosing The Exorcist
01:39:44.979 : en:Merrin Arrives
01:42:55.127 : en:Ritual Guidelines
01:44:19.462 : en:"I Cast You Out"
01:50:13.440 : en:"The Power Of Christ Compels You"
01:53:54.536 : en:Karras' Own Demons
01:57:36.466 : en:Merrin's Final Battle
02:00:59.919 : en:"Take Me!"
02:02:21.000 : en:Absolution
02:03:06.588 : en:A Keepsake From Karras
02:06:40.968 : en:"I've Got Passes"
02:08:05.595 : en:End Credits (Fantasia For Strings, Tubular Bells)

[Image: tdown.png]

For Only Vip Members
Reply


Possibly Related Threads...
Thread Author Replies Views Last Post
  Batman (1989) Bluray 1080p DUAL DD5.1 x264-fidelio admin 0 12 7 hours ago
Last Post: admin
  I Spit on Your Grave Deja Vu (2019) Bluray 1080p x264-EVO admin 0 46 04-24-2019, 02:11 PM
Last Post: admin
  How to Train Your Dragon The Hidden World (2019) Bluray 1080p DUAL DD5.1 x264-CHD admin 0 47 04-24-2019, 12:35 PM
Last Post: admin
  Holmes and Watson (2018) Bluray 1080p DUAL DD5.1 x264-BdC admin 0 49 04-24-2019, 10:24 AM
Last Post: admin
  The Mule (2018) Bluray 1080p DUAL AC3 x264-BdC admin 0 72 04-23-2019, 08:27 PM
Last Post: admin

Forum Jump:


Users browsing this thread: 1 Guest(s)

Powered By MyBB
Theme By Audentio Design
Updated By iAndrew | 2018