Thread Rating:
  • 0 Vote(s) - 0 Average
  • 1
  • 2
  • 3
  • 4
  • 5

[-]
Tags
bluray delta avc 1080p 1986 the force 1 2 remux dts 1990

  The Delta Force 1-2 (1986-1990) Bluray Remux 1080p AVC DTS 2.0
#1
The Delta Force 1-2 (1986-1990) Bluray Remux 1080p AVC DTS 2.0

[Image: tt0090927.jpg]

[Image: imdb.png]
https://www.imdb.com/title/tt0090927/
https://www.imdb.com/title/tt0099399/

[Image: info.png]
The Delta Force 1986 EN.mkv
Format                      : Matroska
Format version              : Version 4 / Version 2
File size                   : 30.7 GiB
Duration                    : 2 h 9 min
Overall bit rate mode       : Variable
Overall bit rate            : 34.0 Mb/s
Encoded date                : UTC 2014-08-09 23:01:38
Writing application         : mkvmerge v7.1.0 ('Good Love') 64bit built on Jul 27 2014 13:06:55
Writing library             : libebml v1.3.0 + libmatroska v1.4.1

Video
ID                          : 1
Format                      : AVC
Format/Info                 : Advanced Video Codec
Format profile              : [email protected]
Format settings             : CABAC / 4 Ref Frames
Format settings, CABAC      : Yes
Format settings, ReFrames   : 4 frames
Codec ID                    : V_MPEG4/ISO/AVC
Duration                    : 2 h 9 min
Bit rate mode               : Variable
Bit rate                    : 31.9 Mb/s
Maximum bit rate            : 38.0 Mb/s
Width                       : 1 920 pixels
Height                      : 1 080 pixels
Display aspect ratio        : 16:9
Frame rate mode             : Constant
Frame rate                  : 23.976 (24000/1001) FPS
Color space                 : YUV
Chroma subsampling          : 4:2:0
Bit depth                   : 8 bits
Scan type                   : Progressive
Bits/(Pixel*Frame)          : 0.641
Stream size                 : 28.8 GiB (94%)
Title                       : The Delta Force
Language                    : English
Default                     : Yes
Forced                      : No

Audio
ID                          : 2
Format                      : DTS
Format/Info                 : Digital Theater Systems
Format profile              : MA / Core
Codec ID                    : A_DTS
Duration                    : 2 h 9 min
Bit rate mode               : Variable / Constant
Bit rate                    : 2 120 kb/s / 1 509 kb/s
Channel(s)                  : 2 channels
Channel positions           : Front: L R
Sampling rate               : 48.0 kHz
Frame rate                  : 93.750 FPS (512 SPF)
Bit depth                   : 24 bits
Compression mode            : Lossless / Lossy
Stream size                 : 1.91 GiB (6%)
Title                       : English
Language                    : English
Default                     : Yes
Forced                      : No

Text #1
ID                          : 3
Format                      : PGS
Muxing mode                 : zlib
Codec ID                    : S_HDMV/PGS
Codec ID/Info               : Picture based subtitle format used on BDs/HD-DVDs
Duration                    : 2 h 8 min
Bit rate                    : 9 970 b/s
Count of elements           : 2454
Stream size                 : 9.15 MiB (0%)
Title                       : English
Language                    : English
Default                     : No
Forced                      : No

Text #2
ID                          : 4
Format                      : PGS
Muxing mode                 : zlib
Codec ID                    : S_HDMV/PGS
Codec ID/Info               : Picture based subtitle format used on BDs/HD-DVDs
Duration                    : 2 h 4 min
Bit rate                    : 10.8 kb/s
Count of elements           : 2342
Stream size                 : 9.55 MiB (0%)
Title                       : Turkish
Language                    : Turkish
Default                     : Yes
Forced                      : No

[Image: 3qaH0E.jpg]

[Image: YaUv7F.jpg]

[Image: tdown.png]

For Only Vip Members

The Delta Force 1-2 (1986-1990) Bluray Remux 1080p AVC DTS 2.0 VIP
Reply


Possibly Related Threads…
Thread Author Replies Views Last Post
  Night of the Living Dead (1990) Bluray Remux 1080p AVC DTS-HD MA 5.1 admin 1 666 03-27-2020, 10:43 AM
Last Post: prodigalson1
  Home Alone 1-2 (1990-1992) Bluray Remux 1080p AVC DD 5.1-MiXeD admin 0 345 12-28-2019, 06:40 PM
Last Post: admin
  Armour of God 1-2-3 (1986-2012) Bluray Remux 1080p TR-EN x264-MiXeD admin 0 446 11-08-2019, 06:54 PM
Last Post: admin
  Pacific Heights (1990) Bluray Remux 1080p AVC DTS 5.1 admin 0 386 08-30-2019, 11:54 AM
Last Post: admin
  Lionheart (1990) Bluray Remux 1080p AVC DTS-HD MA 2.0 admin 0 438 08-21-2019, 07:41 PM
Last Post: admin

Forum Jump:


Users browsing this thread: 1 Guest(s)

Powered By MyBB
Theme By Audentio Design
Updated By iAndrew | 2018