Thread Rating:
  • 0 Vote(s) - 0 Average
  • 1
  • 2
  • 3
  • 4
  • 5

[-]
Tags
bluray avc tower 1080p 2017 the en dark hd ma 1 remux dts 5 tr

 
  The Dark Tower (2017) Bluray Remux 1080p TR-EN AVC DTS-HD MA 5.1
#1
The Dark Tower (2017) Bluray Remux 1080p TR-EN AVC DTS-HD MA 5.1

[Image: dark.tower.jpg]

[Image: imdb.png]
https://www.imdb.com/title/tt1648190/

[Image: info.png]
The Dark Tower 2017 TR EN.mkv
Format                      : Matroska
Format version              : Version 4 / Version 2
File size                   : 18.4 GiB
Duration                    : 1 h 34 min
Overall bit rate mode       : Variable
Overall bit rate            : 27.8 Mb/s
Movie name                  : The Dark Tower
Encoded date                : UTC 2017-10-21 09:14:06
Writing application         : mkvmerge v17.0.0 ('Be Ur Friend') 64-bit
Writing library             : libebml v1.3.5 + libmatroska v1.4.8

Video
ID                          : 1
Format                      : AVC
Format/Info                 : Advanced Video Codec
Format profile              : [email protected]
Format settings, CABAC      : Yes
Format settings, ReFrames   : 2 frames
Format settings, GOP        : M=1, N=10
Codec ID                    : V_MPEG4/ISO/AVC
Duration                    : 1 h 34 min
Bit rate mode               : Variable
Bit rate                    : 24.8 Mb/s
Width                       : 1 920 pixels
Height                      : 1 080 pixels
Display aspect ratio        : 16:9
Frame rate mode             : Constant
Frame rate                  : 23.976 (24000/1001) FPS
Color space                 : YUV
Chroma subsampling          : 4:2:0
Bit depth                   : 8 bits
Scan type                   : Progressive
Bits/(Pixel*Frame)          : 0.499
Stream size                 : 16.4 GiB (89%)
Title                       : The Dark Tower
Language                    : English
Default                     : Yes
Forced                      : No

Audio #1
ID                          : 2
Format                      : DTS
Format/Info                 : Digital Theater Systems
Format profile              : MA / Core
Mode                        : 16
Format settings, Endianness : Big
Codec ID                    : A_DTS
Duration                    : 1 h 34 min
Bit rate mode               : Variable / Constant
Bit rate                    : 2 290 kb/s / 1 509 kb/s
Channel(s)                  : 6 channels
Channel positions           : Front: L C R, Side: L R, LFE
Sampling rate               : 48.0 kHz
Frame rate                  : 93.750 FPS (512 spf)
Bit depth                   : 16 bits
Compression mode            : Lossless / Lossy
Stream size                 : 1.52 GiB (8%)
Title                       : English
Language                    : English
Default                     : Yes
Forced                      : No

Audio #2
ID                          : 3
Format                      : AC-3
Format/Info                 : Audio Coding 3
Format settings, Endianness : Big
Codec ID                    : A_AC3
Duration                    : 1 h 34 min
Bit rate mode               : Constant
Bit rate                    : 640 kb/s
Channel(s)                  : 6 channels
Channel positions           : Front: L C R, Side: L R, LFE
Sampling rate               : 48.0 kHz
Frame rate                  : 31.250 FPS (1536 spf)
Bit depth                   : 16 bits
Compression mode            : Lossy
Stream size                 : 434 MiB (2%)
Title                       : Turkish
Language                    : Turkish
Service kind                : Complete Main
Default                     : No
Forced                      : No

Text #1
ID                          : 4
Format                      : PGS
Muxing mode                 : zlib
Codec ID                    : S_HDMV/PGS
Codec ID/Info               : Picture based subtitle format used on BDs/HD-DVDs
Duration                    : 1 h 33 min
Bit rate                    : 25.8 kb/s
Count of elements           : 2110
Stream size                 : 17.2 MiB (0%)
Title                       : English
Language                    : English
Default                     : No
Forced                      : No

Text #2
ID                          : 5
Format                      : PGS
Muxing mode                 : zlib
Codec ID                    : S_HDMV/PGS
Codec ID/Info               : Picture based subtitle format used on BDs/HD-DVDs
Duration                    : 1 h 33 min
Bit rate                    : 21.3 kb/s
Count of elements           : 1780
Stream size                 : 14.3 MiB (0%)
Title                       : Turkish
Language                    : Turkish
Default                     : Yes
Forced                      : No

[Image: vlcsnap-error156-jpg-6430a30cc9e0de0f205...ab871c.jpg]

[Image: vlcsnap-error880-jpg-b20dca522bf9a29bfd2...1e84bb.jpg]

[Image: tdown.png]

For Only Vip Members

The Dark Tower (2017) Bluray Remux 1080p TR-EN AVC DTS-HD MA 5.1 VIP
Reply


Possibly Related Threads…
Thread Author Replies Views Last Post
  Hitcher in the Dark 1989 1080p Blu-ray Remux AVC DTS-HD MA 2 0-HDT KAiJu 0 6 11-30-2021, 02:50 PM
Last Post: KAiJu
  Zero Dark Thirty 2012 1080p Blu-ray Remux AVC DTS-HD MA 5.1 - KRaLiMaRKo KAiJu 0 42 09-24-2021, 06:52 AM
Last Post: KAiJu
  Family Guy Something Something Something Dark Side (2009) Bluray REMUX 1080p AVC DTS AbrA 0 62 07-23-2021, 01:34 PM
Last Post: AbrA
  Dancer in the Dark (2000) Bluray REMUX 1080p AVC DTS-HD MA 5.1-KRaLiMaRKo AbrA 0 107 05-21-2021, 07:47 PM
Last Post: AbrA
  Dark Waters 2019 1080p Bluray REMUX AVC DTS-HD MA 5.1-4K4U KAiJu 0 152 04-07-2021, 06:45 AM
Last Post: KAiJu

Forum Jump:


Users browsing this thread: 1 Guest(s)

Powered By MyBB
RSS RSS Syndication
Updated By iAndrew | 2021