Thread Rating:
  • 0 Vote(s) - 0 Average
  • 1
  • 2
  • 3
  • 4
  • 5

[-]
Tags
dd mpeg bluray 1080p the covenant 1 remux 5 2006

  The Covenant (2006) Bluray Remux 1080p MPEG DD 5.1
#1
The Covenant (2006) Bluray Remux 1080p MPEG DD 5.1

[Image: tt0475944.jpg]

[Image: imdb.png]
https://www.imdb.com/title/tt0475944/

[Image: info.png]
The Covenant 2006 EN.mkv
Format                      : Matroska
Format version              : Version 4 / Version 2
File size                   : 16.0 GiB
Duration                    : 1 h 37 min
Overall bit rate mode       : Variable
Overall bit rate            : 23.5 Mb/s
Encoded date                : UTC 2013-06-09 08:08:12
Writing application         : mkvmerge v6.2.0 ('Promised Land') built on Apr 28 2013 12:22:01
Writing library             : libebml v1.3.0 + libmatroska v1.4.0

Video
ID                          : 1
Format                      : MPEG Video
Format version              : Version 2
Format profile              : [email protected]
Format settings, BVOP       : Yes
Format settings, Matrix     : Custom
Format settings, GOP        : M=3, N=12
Codec ID                    : V_MPEG2
Codec ID/Info               : MPEG 1 or 2 Video
Duration                    : 1 h 37 min
Bit rate mode               : Variable
Bit rate                    : 22.4 Mb/s
Maximum bit rate            : 33.0 Mb/s
Width                       : 1 920 pixels
Height                      : 1 080 pixels
Display aspect ratio        : 16:9
Frame rate mode             : Constant
Frame rate                  : 23.976 (24000/1001) FPS
Color space                 : YUV
Chroma subsampling          : 4:2:0
Bit depth                   : 8 bits
Scan type                   : Progressive
Compression mode            : Lossy
Bits/(Pixel*Frame)          : 0.451
Time code of first frame    : 00:00:00:00
Time code source            : Group of pictures header
GOP, Open/Closed            : Open
GOP, Open/Closed of first f : Closed
Stream size                 : 15.2 GiB (95%)
Title                       : The Covenant
Language                    : English
Default                     : Yes
Forced                      : No

Audio
ID                          : 2
Format                      : AC-3
Format/Info                 : Audio Coding 3
Format settings, Endianness : Big
Codec ID                    : A_AC3
Duration                    : 1 h 37 min
Bit rate mode               : Constant
Bit rate                    : 640 kb/s
Channel(s)                  : 6 channels
Channel positions           : Front: L C R, Side: L R, LFE
Sampling rate               : 48.0 kHz
Frame rate                  : 31.250 FPS (1536 spf)
Bit depth                   : 16 bits
Compression mode            : Lossy
Stream size                 : 445 MiB (3%)
Title                       : English
Language                    : English
Service kind                : Complete Main
Default                     : Yes
Forced                      : No

Text #1
ID                          : 3
Format                      : PGS
Muxing mode                 : zlib
Codec ID                    : S_HDMV/PGS
Codec ID/Info               : Picture based subtitle format used on BDs/HD-DVDs
Title                       : Turkish
Language                    : Turkish
Default                     : Yes
Forced                      : No

Text #2
ID                          : 4
Format                      : PGS
Muxing mode                 : zlib
Codec ID                    : S_HDMV/PGS
Codec ID/Info               : Picture based subtitle format used on BDs/HD-DVDs
Title                       : English
Language                    : English
Default                     : No
Forced                      : No

[Image: vlcsnap-error540-jpg-72c3cfc9fa3f2ccf7e7...5a6234.jpg]

[Image: vlcsnap-error830-jpg-92b9232b3fe2229db6a...9dd825.jpg]

[Image: tdown.png]

For Only Vip Members

The Covenant (2006) Bluray Remux 1080p MPEG DD 5.1 VIP
Reply


Possibly Related Threads…
Thread Author Replies Views Last Post
  The Last Boy 2019 1080p Remux MPEG-2 DTS-HD MA 5.1-playBD KAiJu 0 57 11-30-2020, 01:28 PM
Last Post: KAiJu
  The Last King of Scotland (2006) Bluray REMUX 1080p AVC DTS 5.1-HUSe AbrA 0 92 11-05-2020, 12:07 PM
Last Post: AbrA
  Invisible Sue Ploetzlich unsichtbar 2018 1080p Remux MPEG-2 DTS-HD MA 5.1-playBD KAiJu 0 103 10-31-2020, 06:44 AM
Last Post: KAiJu
  Clara 2018 1080p Blu-ray Remux MPEG-2 DTS-HD MA 5.1 - KRaLiMaRKo KAiJu 0 78 10-19-2020, 03:10 PM
Last Post: KAiJu
  The Hills Have Eyes I-II (2006-2007) Bluray REMUX 1080p AVC DTS-HD MA 5.1-HUSe AbrA 1 190 10-11-2020, 06:24 PM
Last Post: pastifox

Forum Jump:


Users browsing this thread: 1 Guest(s)

Powered By MyBB
Theme By Audentio Design
Updated By iAndrew | 2018