Thread Rating:
  • 0 Vote(s) - 0 Average
  • 1
  • 2
  • 3
  • 4
  • 5

[-]
Tags
1970 dd bluray 1080p the 1 vc 2 remux conformist

  The Conformist (1970) Bluray Remux 1080p VC-1 DD 2.0
#1
The Conformist (1970) Bluray Remux 1080p VC-1 DD 2.0

[Image: tt0065571.jpg]

[Image: imdb.png]
https://www.imdb.com/title/tt0065571/

[Image: info.png]
The Conformist aka Il Conformista 1970 IT EN.mkv
Format                      : Matroska
Format version              : Version 4 / Version 2
File size                   : 24.3 GiB
Duration                    : 1 h 52 min
Overall bit rate            : 30.9 Mb/s
Movie name                  : The Conformist aka Il Conformista
Encoded date                : UTC 2017-10-15 16:23:45
Writing application         : mkvmerge v17.0.0 ('Be Ur Friend') 64-bit
Writing library             : libebml v1.3.5 + libmatroska v1.4.8

Video
ID                          : 1
Format                      : VC-1
Format profile              : [email protected]
Codec ID                    : V_MS/VFW/FOURCC / WVC1
Codec ID/Hint               : Microsoft
Duration                    : 1 h 52 min
Bit rate                    : 30.0 Mb/s
Width                       : 1 920 pixels
Height                      : 1 080 pixels
Display aspect ratio        : 16:9
Frame rate mode             : Constant
Frame rate                  : 23.976 (24000/1001) FPS
Color space                 : YUV
Chroma subsampling          : 4:2:0
Bit depth                   : 8 bits
Scan type                   : Progressive
Compression mode            : Lossy
Bits/(Pixel*Frame)          : 0.602
Stream size                 : 23.6 GiB (97%)
Title                       : The Conformist aka Il Conformista
Language                    : Italian
Default                     : Yes
Forced                      : No

Audio #1
ID                          : 2
Format                      : AC-3
Format/Info                 : Audio Coding 3
Codec ID                    : A_AC3
Duration                    : 1 h 52 min
Bit rate mode               : Constant
Bit rate                    : 448 kb/s
Channel(s)                  : 2 channels
Channel positions           : Front: L R
Sampling rate               : 48.0 kHz
Frame rate                  : 31.250 FPS (1536 SPF)
Bit depth                   : 16 bits
Compression mode            : Lossy
Stream size                 : 362 MiB (1%)
Title                       : Italian
Language                    : Italian
Service kind                : Complete Main
Default                     : Yes
Forced                      : No

Audio #2
ID                          : 3
Format                      : AC-3
Format/Info                 : Audio Coding 3
Codec ID                    : A_AC3
Duration                    : 1 h 52 min
Bit rate mode               : Constant
Bit rate                    : 448 kb/s
Channel(s)                  : 2 channels
Channel positions           : Front: L R
Sampling rate               : 48.0 kHz
Frame rate                  : 31.250 FPS (1536 SPF)
Bit depth                   : 16 bits
Compression mode            : Lossy
Stream size                 : 362 MiB (1%)
Title                       : English
Language                    : English
Service kind                : Complete Main
Default                     : No
Forced                      : No

Text #1
ID                          : 4
Format                      : PGS
Muxing mode                 : zlib
Codec ID                    : S_HDMV/PGS
Codec ID/Info               : Picture based subtitle format used on BDs/HD-DVDs
Duration                    : 792 ms
Bit rate                    : 79.2 kb/s
Count of elements           : 2
Stream size                 : 7.66 KiB (0%)
Title                       : Italian
Language                    : Italian
Default                     : No
Forced                      : No

Text #2
ID                          : 5
Format                      : PGS
Muxing mode                 : zlib
Codec ID                    : S_HDMV/PGS
Codec ID/Info               : Picture based subtitle format used on BDs/HD-DVDs
Duration                    : 1 h 47 min
Bit rate                    : 31.9 kb/s
Count of elements           : 2461
Stream size                 : 24.4 MiB (0%)
Title                       : English
Language                    : English
Default                     : No
Forced                      : No

Text #3
ID                          : 6
Format                      : PGS
Muxing mode                 : zlib
Codec ID                    : S_HDMV/PGS
Codec ID/Info               : Picture based subtitle format used on BDs/HD-DVDs
Duration                    : 1 h 47 min
Bit rate                    : 26.2 kb/s
Count of elements           : 2084
Stream size                 : 20.1 MiB (0%)
Title                       : Turkish
Language                    : Turkish
Default                     : Yes
Forced                      : No

[Image: 47803004662_e068cae00e_b.jpg]

[Image: 47855143681_3532487089_b.jpg]

[Image: tdown.png]

For Only Vip Members

The Conformist (1970) Bluray Remux 1080p VC-1 DD 2.0 VIP
Reply
#2
Muchas gracias
Reply


Possibly Related Threads…
Thread Author Replies Views Last Post
  The Aristocats (1970) Bluray REMUX 1080p AVC DTS-HD MA 5.1-HUSe AbrA 0 279 07-31-2020, 05:18 PM
Last Post: AbrA
  MASH (1970) Bluray Remux 1080p TR EN AVC DTS-HD MA 5.1 admin 0 822 08-21-2019, 07:46 PM
Last Post: admin
  Eugenie (1970) Bluray Remux 1080p AVC DTS-HD MA 2.0 admin 0 646 07-30-2019, 08:35 AM
Last Post: admin
  The Honeymoon Killers (1970) Bluray Remux 1080p AVC DD 1.0 admin 0 759 06-16-2019, 05:27 PM
Last Post: admin
  A Man Called Horse (1970) Bluray Remux 1080p VC-1 DTS-HD MA 5.1 admin 0 939 06-13-2019, 10:02 AM
Last Post: admin

Forum Jump:


Users browsing this thread: 1 Guest(s)

Powered By MyBB
Theme By Audentio Design
Updated By iAndrew | 2018