Thread Rating:
  • 0 Vote(s) - 0 Average
  • 1
  • 2
  • 3
  • 4
  • 5

[-]
Tags
bluray 1080p the collector hd ma 1 vc remux dts 5 2009

  The Collector (2009) Bluray Remux 1080p VC-1 DTS-HD MA 5.1
#1
The Collector (2009) Bluray Remux 1080p VC-1 DTS-HD MA 5.1

[Image: tt0844479.jpg]

[Image: imdb.png]
https://www.imdb.com/title/tt0844479/

[Image: info.png]
The Collector 2009 EN.mkv
Format                      : Matroska
Format version              : Version 4 / Version 2
File size                   : 12.8 GiB
Duration                    : 1 h 29 min
Overall bit rate            : 20.4 Mb/s
Encoded date                : UTC 2014-08-10 00:15:40
Writing application         : mkvmerge v7.1.0 ('Good Love') 64bit built on Jul 27 2014 13:06:55
Writing library             : libebml v1.3.0 + libmatroska v1.4.1

Video
ID                          : 1
Format                      : VC-1
Format profile              : [email protected]
Codec ID                    : V_MS/VFW/FOURCC / WVC1
Codec ID/Hint               : Microsoft
Duration                    : 1 h 29 min
Bit rate                    : 16.0 Mb/s
Width                       : 1 920 pixels
Height                      : 1 080 pixels
Display aspect ratio        : 16:9
Frame rate mode             : Constant
Frame rate                  : 23.976 (24000/1001) FPS
Color space                 : YUV
Chroma subsampling          : 4:2:0
Bit depth                   : 8 bits
Scan type                   : Progressive
Compression mode            : Lossy
Bits/(Pixel*Frame)          : 0.323
Stream size                 : 10.1 GiB (79%)
Title                       : The Collector
Language                    : English
Default                     : Yes
Forced                      : No

Audio
ID                          : 2
Format                      : DTS
Format/Info                 : Digital Theater Systems
Format profile              : MA / Core
Mode                        : 16
Format settings, Endianness : Big
Codec ID                    : A_DTS
Duration                    : 1 h 29 min
Bit rate mode               : Variable / Constant
Bit rate                    : 4 362 kb/s / 1 509 kb/s
Channel(s)                  : 6 channels
Channel positions           : Front: L C R, Side: L R, LFE
Sampling rate               : 48.0 kHz
Frame rate                  : 93.750 FPS (512 spf)
Bit depth                   : 24 bits
Compression mode            : Lossless / Lossy
Stream size                 : 2.74 GiB (21%)
Title                       : English
Language                    : English
Default                     : Yes
Forced                      : No

Text
ID                          : 3
Format                      : PGS
Muxing mode                 : zlib
Codec ID                    : S_HDMV/PGS
Codec ID/Info               : Picture based subtitle format used on BDs/HD-DVDs
Duration                    : 1 h 28 min
Bit rate                    : 4 095 b/s
Count of elements           : 808
Stream size                 : 2.60 MiB (0%)
Title                       : Turkish
Language                    : Turkish
Default                     : Yes
Forced                      : No

[Image: vlcsnap-error510-jpg-ad6e3ab2657ffd3b742...e3e54b.jpg]

[Image: vlcsnap-error928-jpg-520d54e901cf737c2ac...4972c1.jpg]

[Image: tdown.png]

For Only Vip Members

The Collector (2009) Bluray Remux 1080p VC-1 DTS-HD MA 5.1 VIP
Reply


Possibly Related Threads…
Thread Author Replies Views Last Post
  Blood and Bone 2009 1080p Remux AVC DTS-HD MA 5.1-playBD KAiJu 0 128 10-26-2020, 04:03 PM
Last Post: KAiJu
  The Bone Collector (1999) Bluray REMUX 1080p AVC TrueHD 5.1-HUSe AbrA 0 130 10-14-2020, 12:24 PM
Last Post: AbrA
  Surrogates (2009) Bluray REMUX 1080p AVC DTS-HD MA 5.1-HUSe AbrA 0 389 07-10-2020, 09:50 PM
Last Post: AbrA
  9 (2009) Bluray Remux 1080p VC-1 DTS-HD MA 5.1 admin 0 683 08-31-2019, 07:46 AM
Last Post: admin
  Obsessed (2009) Bluray Remux 1080p AVC TrueHD 5.1 admin 0 671 08-23-2019, 10:48 AM
Last Post: admin

Forum Jump:


Users browsing this thread: 1 Guest(s)

Powered By MyBB
Theme By Audentio Design
Updated By iAndrew | 2018