Thread Rating:
  • 0 Vote(s) - 0 Average
  • 1
  • 2
  • 3
  • 4
  • 5

[-]
Tags
2012 bluray avc 1080p the hd ma 1 remux dts collection 5

 
  The Collection (2012) Bluray Remux 1080p AVC DTS-HD MA 5.1
#1
The Collection (2012) Bluray Remux 1080p AVC DTS-HD MA 5.1

[Image: tt1748227.jpg]

[Image: imdb.png]
https://www.imdb.com/title/tt1748227/

[Image: info.png]
The Collection 2012 EN.mkv
Format                      : Matroska
Format version              : Version 4 / Version 2
File size                   : 17.1 GiB
Duration                    : 1 h 21 min
Overall bit rate            : 30.1 Mb/s
Movie name                  : The Collection
Encoded date                : UTC 2014-09-15 22:30:16
Writing application         : mkvmerge v7.2.0 ('On Every Street') 64bit built on Sep 13 2014 15:52:10
Writing library             : libebml v1.3.0 + libmatroska v1.4.1

Video
ID                          : 1
Format                      : AVC
Format/Info                 : Advanced Video Codec
Format profile              : [email protected]
Format settings             : CABAC / 4 Ref Frames
Format settings, CABAC      : Yes
Format settings, ReFrames   : 4 frames
Codec ID                    : V_MPEG4/ISO/AVC
Duration                    : 1 h 21 min
Bit rate mode               : Constant
Bit rate                    : 27.6 Mb/s
Nominal bit rate            : 30.0 Mb/s
Width                       : 1 920 pixels
Height                      : 1 080 pixels
Display aspect ratio        : 16:9
Frame rate mode             : Constant
Frame rate                  : 24.000 FPS
Standard                    : NTSC
Color space                 : YUV
Chroma subsampling          : 4:2:0
Bit depth                   : 8 bits
Scan type                   : Progressive
Bits/(Pixel*Frame)          : 0.555
Stream size                 : 15.8 GiB (92%)
Title                       : The Collection
Language                    : English
Default                     : Yes
Forced                      : No
Color range                 : Limited
Color primaries             : BT.709
Transfer characteristics    : BT.709
Matrix coefficients         : BT.709

Audio
ID                          : 2
Format                      : DTS
Format/Info                 : Digital Theater Systems
Format profile              : MA / Core
Codec ID                    : A_DTS
Duration                    : 1 h 21 min
Bit rate mode               : Variable / Constant
Bit rate                    : 2 401 kb/s / 1 509 kb/s
Channel(s)                  : 6 channels
Channel positions           : Front: L C R, Side: L R, LFE
Sampling rate               : 48.0 kHz
Frame rate                  : 93.750 FPS (512 SPF)
Bit depth                   : 16 bits
Compression mode            : Lossless / Lossy
Stream size                 : 1.37 GiB (8%)
Title                       : English
Language                    : English
Default                     : Yes
Forced                      : No

Text
ID                          : 3
Format                      : PGS
Muxing mode                 : zlib
Codec ID                    : S_HDMV/PGS
Codec ID/Info               : Picture based subtitle format used on BDs/HD-DVDs
Duration                    : 1 h 15 min
Bit rate                    : 7 677 b/s
Count of elements           : 1180
Stream size                 : 4.14 MiB (0%)
Title                       : Turkish
Language                    : Turkish
Default                     : Yes
Forced                      : No

[Image: qXEyoF.jpg]

[Image: VNfjlB.jpg]

[Image: tdown.png]

For Only Vip Members

The Collection (2012) Bluray Remux 1080p AVC DTS-HD MA 5.1 VIP
Reply


Possibly Related Threads…
Thread Author Replies Views Last Post
  Umberto D (1952) Criterion Collection Bluray REMUX 1080p AVC DTS-HD MA 1.0-KRaLiMaRKo AbrA 0 6 Yesterday, 11:07 AM
Last Post: AbrA
  Revanche 2008 Criterion Collection 1080p Blu-ray Remux AVC DTS-HD MA 5.1 - KRaLiMaRKo KAiJu 0 18 01-14-2022, 01:32 PM
Last Post: KAiJu
  The Asphalt Jungle 1950 Criterion Collection 1080p Blu-ray Remux AVC DTS-HD MA 1.0 - KAiJu 0 18 01-12-2022, 06:29 AM
Last Post: KAiJu
  To the Wonder 2012 1080p Blu-ray Remux AVC DTS-HD MA 7.1 - KRaLiMaRKo KAiJu 0 16 01-05-2022, 09:06 AM
Last Post: KAiJu
  Sweetie 1989 Criterion Collection Repack 1080p Blu-ray Remux AVC DTS-HD MA 5.1 - KRaL KAiJu 0 39 11-24-2021, 11:19 AM
Last Post: KAiJu

Forum Jump:


Users browsing this thread: 1 Guest(s)

Powered By MyBB
RSS RSS Syndication
Updated By iAndrew | 2022