Thread Rating:
  • 0 Vote(s) - 0 Average
  • 1
  • 2
  • 3
  • 4
  • 5

[-]
Tags
bluray 1995 avc 1080p of the bridges county hd madison ma 1 remux dts 5

  The Bridges of Madison County (1995) Bluray Remux 1080p AVC DTS-HD MA 5.1
#1
The Bridges of Madison County (1995) Bluray Remux 1080p AVC DTS-HD MA 5.1

[Image: tt0112579.jpg]

[Image: imdb.png]
https://www.imdb.com/title/tt0112579/

[Image: info.png]
The Bridges of Madison County 1995 EN.mkv
Format                      : Matroska
Format version              : Version 4 / Version 2
File size                   : 27.3 GiB
Duration                    : 2 h 14 min
Overall bit rate mode       : Variable
Overall bit rate            : 29.0 Mb/s
Movie name                  : The Bridges of Madison County
Encoded date                : UTC 2016-11-07 15:41:53
Writing application         : mkvmerge v9.5.0 ('Quiet Fire') 64bit
Writing library             : libebml v1.3.4 + libmatroska v1.4.5

Video
ID                          : 1
Format                      : AVC
Format/Info                 : Advanced Video Codec
Format profile              : [email protected]
Format settings, CABAC      : Yes
Format settings, ReFrames   : 2 frames
Codec ID                    : V_MPEG4/ISO/AVC
Duration                    : 2 h 14 min
Bit rate mode               : Variable
Bit rate                    : 25.0 Mb/s
Width                       : 1 920 pixels
Height                      : 1 080 pixels
Display aspect ratio        : 16:9
Frame rate mode             : Constant
Frame rate                  : 23.976 (24000/1001) FPS
Color space                 : YUV
Chroma subsampling          : 4:2:0
Bit depth                   : 8 bits
Scan type                   : Progressive
Bits/(Pixel*Frame)          : 0.502
Stream size                 : 23.5 GiB (86%)
Title                       : The Bridges of Madison County
Language                    : English
Default                     : Yes
Forced                      : No

Audio
ID                          : 2
Format                      : DTS
Format/Info                 : Digital Theater Systems
Format profile              : MA / Core
Mode                        : 16
Format settings, Endianness : Big
Codec ID                    : A_DTS
Duration                    : 2 h 14 min
Bit rate mode               : Variable / Constant
Bit rate                    : 4 065 kb/s / 1 509 kb/s
Channel(s)                  : 6 channels
Channel positions           : Front: L C R, Side: L R, LFE
Sampling rate               : 48.0 kHz
Frame rate                  : 93.750 FPS (512 spf)
Bit depth                   : 24 bits
Compression mode            : Lossless / Lossy
Stream size                 : 3.82 GiB (14%)
Title                       : English
Language                    : English
Default                     : Yes
Forced                      : No

Text #1
ID                          : 3
Format                      : PGS
Muxing mode                 : zlib
Codec ID                    : S_HDMV/PGS
Codec ID/Info               : Picture based subtitle format used on BDs/HD-DVDs
Duration                    : 2 h 13 min
Bit rate                    : 10.9 kb/s
Count of elements           : 2646
Stream size                 : 10.4 MiB (0%)
Title                       : English SDH
Language                    : English
Default                     : No
Forced                      : No

Text #2
ID                          : 4
Format                      : PGS
Muxing mode                 : zlib
Codec ID                    : S_HDMV/PGS
Codec ID/Info               : Picture based subtitle format used on BDs/HD-DVDs
Duration                    : 2 h 8 min
Bit rate                    : 10.7 kb/s
Count of elements           : 2498
Stream size                 : 9.87 MiB (0%)
Title                       : Turkish
Language                    : Turkish
Default                     : Yes
Forced                      : No

[Image: vlcsnap-error298-jpg-d4ec7e47350bf6a8909...ad7052.jpg]

[Image: vlcsnap-error541-jpg-5a64de420a4ddaf2229...7fdb2c.jpg]

[Image: tdown.png]

For Only Vip Members

The Bridges of Madison County (1995) Bluray Remux 1080p AVC DTS-HD MA 5.1 VIP
Reply


Possibly Related Threads…
Thread Author Replies Views Last Post
  The Quick and the Dead (1995) Bluray REMUX 1080p TR-EN AVC TrueHD 5.1-TURG AbrA 0 562 04-11-2020, 07:05 PM
Last Post: AbrA
  Outbreak (1995) Bluray REMUX 1080p EN-TR VC-1 TrueHD 5.1-HuSe admin 0 565 03-18-2020, 01:31 PM
Last Post: admin
  Die Hard With a Vengeance (1995) Bluray Remux 1080p x264-HUSE admin 1 807 10-10-2019, 01:43 PM
Last Post: admin
  Outbreak (1995) Bluray Remux 1080p VC-1 TrueHD 5.1 admin 0 797 08-23-2019, 01:51 PM
Last Post: admin
  Waterworld (1995) Bluray Remux 1080p AVC DTS-HD MA 5.1 admin 0 734 08-10-2019, 03:38 PM
Last Post: admin

Forum Jump:


Users browsing this thread: 1 Guest(s)

Powered By MyBB
Theme By Audentio Design
Updated By iAndrew | 2018