Thread Rating:
  • 0 Vote(s) - 0 Average
  • 1
  • 2
  • 3
  • 4
  • 5

[-]
Tags
in boy bluray striped avc 1080p pyjamas the hd ma 1 remux dts 5 2008

  The Boy in the Striped Pyjamas (2008) Bluray Remux 1080p AVC DTS-HD MA 5.1
#1
The Boy in the Striped Pyjamas (2008) Bluray Remux 1080p AVC DTS-HD MA 5.1

[Image: tt0914798.jpg]

[Image: imdb.png]
https://www.imdb.com/title/tt0914798/

[Image: info.png]
The Boy in the Striped Pyjamas 2008 EN.mkv
Format                      : Matroska
Format version              : Version 4 / Version 2
File size                   : 19.1 GiB
Duration                    : 1 h 34 min
Overall bit rate mode       : Variable
Overall bit rate            : 28.9 Mb/s
Movie name                  : The Boy in the Striped Pyjamas
Encoded date                : UTC 2016-11-22 00:37:48
Writing application         : mkvmerge v9.5.0 ('Quiet Fire') 64bit
Writing library             : libebml v1.3.4 + libmatroska v1.4.5

Video
ID                          : 1
Format                      : AVC
Format/Info                 : Advanced Video Codec
Format profile              : [email protected]
Format settings, CABAC      : Yes
Format settings, ReFrames   : 4 frames
Format settings, GOP        : M=3, N=24
Codec ID                    : V_MPEG4/ISO/AVC
Duration                    : 1 h 34 min
Bit rate mode               : Variable
Bit rate                    : 26.9 Mb/s
Maximum bit rate            : 35.0 Mb/s
Width                       : 1 920 pixels
Height                      : 1 080 pixels
Display aspect ratio        : 16:9
Frame rate mode             : Constant
Frame rate                  : 24.000 FPS
Standard                    : NTSC
Color space                 : YUV
Chroma subsampling          : 4:2:0
Bit depth                   : 8 bits
Scan type                   : Progressive
Bits/(Pixel*Frame)          : 0.540
Stream size                 : 17.8 GiB (93%)
Title                       : The Boy in the Striped Pyjamas
Language                    : English
Default                     : Yes
Forced                      : No
Color range                 : Limited
Color primaries             : BT.709
Transfer characteristics    : BT.709
Matrix coefficients         : BT.709

Audio
ID                          : 2
Format                      : DTS
Format/Info                 : Digital Theater Systems
Format profile              : MA / Core
Mode                        : 16
Format settings, Endianness : Big
Codec ID                    : A_DTS
Duration                    : 1 h 34 min
Bit rate mode               : Variable / Constant
Bit rate                    : 1 987 kb/s / 1 509 kb/s
Channel(s)                  : 6 channels
Channel positions           : Front: L C R, Side: L R, LFE
Sampling rate               : 48.0 kHz
Frame rate                  : 93.750 FPS (512 spf)
Bit depth                   : 16 bits
Compression mode            : Lossless / Lossy
Stream size                 : 1.31 GiB (7%)
Title                       : English
Language                    : English
Default                     : Yes
Forced                      : No

Text
ID                          : 3
Format                      : PGS
Muxing mode                 : zlib
Codec ID                    : S_HDMV/PGS
Codec ID/Info               : Picture based subtitle format used on BDs/HD-DVDs
Duration                    : 1 h 27 min
Bit rate                    : 9 915 b/s
Count of elements           : 1468
Stream size                 : 6.21 MiB (0%)
Title                       : Turkish
Language                    : Turkish
Default                     : Yes
Forced                      : No

[Image: vlcsnap-error233-jpg-d37b60843b04a81ef81...87424e.jpg]

[Image: vlcsnap-error544-jpg-5bac0bda6dd26f830d6...c2aa5d.jpg]

[Image: tdown.png]

For Only Vip Members

The Boy in the Striped Pyjamas (2008) Bluray Remux 1080p AVC DTS-HD MA 5.1 VIP
Reply


Possibly Related Threads…
Thread Author Replies Views Last Post
  Stiletto (2008) Bluray REMUX 1080p AVC DTS-HD MA 5.1 AbrA 0 420 07-03-2020, 11:50 AM
Last Post: AbrA
  Semi-Pro (2008) Bluray Remux 1080p VC-1 DTS-HD MA 7.1 admin 0 696 08-23-2019, 01:04 PM
Last Post: admin
  Ich Will (2008) Bluray Remux 1080p AVC DTS-HD MA 7.1 admin 0 567 08-19-2019, 03:54 PM
Last Post: admin
  RocknRolla (2008) Bluray Remux 1080p TR EN VC-1 DD 5.1 admin 0 556 07-30-2019, 12:31 PM
Last Post: admin
  Bathory (2008) Bluray Remux 1080p AVC DD 5.1 admin 0 625 07-16-2019, 02:01 PM
Last Post: admin

Forum Jump:


Users browsing this thread: 2 Guest(s)

Powered By MyBB
Theme By Audentio Design
Updated By iAndrew | 2018