Thread Rating:
  • 0 Vote(s) - 0 Average
  • 1
  • 2
  • 3
  • 4
  • 5

[-]
Tags
bluray baby avc 1080p 2017 7 the en hd ma 1 remux boss dts tr

 
  The Boss Baby (2017) Bluray Remux 1080p TR-EN AVC DTS-HD MA 7.1
#1
The Boss Baby (2017) Bluray Remux 1080p TR-EN AVC DTS-HD MA 7.1

[Image: tt3874544.jpg]

[Image: imdb.png]
https://www.imdb.com/title/tt3874544/

[Image: info.png]
The Boss Baby 2017 TR EN.mkv
Format                      : Matroska
Format version              : Version 4 / Version 2
File size                   : 21.6 GiB
Duration                    : 1 h 37 min
Overall bit rate mode       : Variable
Overall bit rate            : 31.7 Mb/s
Movie name                  : The Boss Baby
Encoded date                : UTC 2017-07-15 17:37:19
Writing application         : mkvmerge v13.0.0 ('The Juggler') 64bit
Writing library             : libebml v1.3.4 + libmatroska v1.4.5

Video
ID                          : 1
Format                      : AVC
Format/Info                 : Advanced Video Codec
Format profile              : [email protected]
Format settings, CABAC      : Yes
Format settings, ReFrames   : 4 frames
Codec ID                    : V_MPEG4/ISO/AVC
Duration                    : 1 h 37 min
Bit rate mode               : Variable
Bit rate                    : 26.7 Mb/s
Maximum bit rate            : 31.0 Mb/s
Width                       : 1 920 pixels
Height                      : 1 080 pixels
Display aspect ratio        : 16:9
Frame rate mode             : Constant
Frame rate                  : 23.976 (24000/1001) FPS
Color space                 : YUV
Chroma subsampling          : 4:2:0
Bit depth                   : 8 bits
Scan type                   : Progressive
Bits/(Pixel*Frame)          : 0.537
Stream size                 : 18.2 GiB (84%)
Title                       : The Boss Baby
Language                    : English
Default                     : Yes
Forced                      : No

Audio #1
ID                          : 2
Format                      : DTS
Format/Info                 : Digital Theater Systems
Format profile              : MA / ES Matrix / Core
Mode                        : 16
Format settings, Endianness : Big
Codec ID                    : A_DTS
Duration                    : 1 h 37 min
Bit rate mode               : Variable / Constant / Constant
Bit rate                    : 4 533 kb/s / 1 509 kb/s / 1 509 kb/s
Channel(s)                  : 8 channels / 7 channels / 6 channels
Channel positions           : Front: L C R, Side: L R, Back: L R, LFE / Front: L C R, Side: L R, Back: C, LFE / Front: L C R, Side: L R, LFE
Sampling rate               : 48.0 kHz
Frame rate                  : 93.750 FPS (512 spf)
Bit depth                   : 24 bits
Compression mode            : Lossless / Lossy / Lossy
Stream size                 : 3.09 GiB (14%)
Title                       : English
Language                    : English
Default                     : Yes
Forced                      : No

Audio #2
ID                          : 3
Format                      : AC-3
Format/Info                 : Audio Coding 3
Format settings, Endianness : Big
Codec ID                    : A_AC3
Duration                    : 1 h 37 min
Bit rate mode               : Constant
Bit rate                    : 448 kb/s
Channel(s)                  : 6 channels
Channel positions           : Front: L C R, Side: L R, LFE
Sampling rate               : 48.0 kHz
Frame rate                  : 31.250 FPS (1536 spf)
Bit depth                   : 16 bits
Compression mode            : Lossy
Stream size                 : 312 MiB (1%)
Title                       : Turkish
Language                    : Turkish
Service kind                : Complete Main
Default                     : No
Forced                      : No

Text #1
ID                          : 4
Format                      : PGS
Muxing mode                 : zlib
Codec ID                    : S_HDMV/PGS
Codec ID/Info               : Picture based subtitle format used on BDs/HD-DVDs
Duration                    : 1 h 36 min
Bit rate                    : 37.6 kb/s
Count of elements           : 3148
Stream size                 : 26.0 MiB (0%)
Title                       : English
Language                    : English
Default                     : No
Forced                      : No

Text #2
ID                          : 5
Format                      : PGS
Muxing mode                 : zlib
Codec ID                    : S_HDMV/PGS
Codec ID/Info               : Picture based subtitle format used on BDs/HD-DVDs
Duration                    : 1 h 36 min
Bit rate                    : 36.7 kb/s
Count of elements           : 3160
Stream size                 : 25.4 MiB (0%)
Title                       : Turkish
Language                    : Turkish
Default                     : Yes
Forced                      : No

[Image: 32896422277_d7633baa1e_b.jpg]

[Image: 32896422777_066f702f30_b.jpg]

[Image: tdown.png]

For Only Vip Members

The Boss Baby (2017) Bluray Remux 1080p TR-EN AVC DTS-HD MA 7.1 VIP
Reply


Possibly Related Threads…
Thread Author Replies Views Last Post
  Man and a Baby 2017 BluRay Remux 1080p AVC DTS-HD MA 5.1-HiFi KAiJu 0 37 04-13-2022, 06:39 AM
Last Post: KAiJu
  The Boss Baby Family Business 2021 1080p BluRay REMUX AVC Atmos-TRiToN KAiJu 0 132 09-15-2021, 09:54 AM
Last Post: KAiJu
  The Baby 1973 1080p Blu-ray Remux AVC DTS-HD MA 2.0 - KRaLiMaRKo KAiJu 0 113 09-12-2021, 12:41 PM
Last Post: KAiJu
  Bringing Up Baby 1938 1080p Blu-ray Remux AVC LPCM 1 0-HDT KAiJu 0 139 08-19-2021, 02:38 PM
Last Post: KAiJu
  Shiva Baby 2020 1080p Remux AVC DTS-HD MA 5.1-playBD KAiJu 0 169 07-14-2021, 06:52 AM
Last Post: KAiJu

Forum Jump:


Users browsing this thread: 1 Guest(s)

Powered By MyBB
RSS RSS Syndication
Updated By iAndrew | 2022