Thread Rating:
  • 0 Vote(s) - 0 Average
  • 1
  • 2
  • 3
  • 4
  • 5

[-]
Tags
bluray bodyguard avc 1080p the 2007 tai hd ma 1 2 remux dts 5 tr

 
  The Bodyguard 2 (2007) Bluray Remux 1080p TR-TAI AVC DTS-HD MA 5.1
#1
The Bodyguard 2 (2007) Bluray Remux 1080p TR-TAI AVC DTS-HD MA 5.1

[Image: tt0989622.jpg]

[Image: imdb.png]
https://www.imdb.com/title/tt0989622/

[Image: info.png]
The Bodyguard 2 2007 TR TAI.mkv
Format                      : Matroska
Format version              : Version 4 / Version 2
File size                   : 24.0 GiB
Duration                    : 1 h 34 min
Overall bit rate            : 36.2 Mb/s
Encoded date                : UTC 2014-06-12 22:37:14
Writing application         : mkvmerge v7.0.0 ('Where We Going') 64bit built on Jun  9 2014 15:16:27
Writing library             : libebml v1.3.0 + libmatroska v1.4.1

Video
ID                          : 1
Format                      : AVC
Format/Info                 : Advanced Video Codec
Format profile              : [email protected]
Format settings, CABAC      : Yes
Format settings, ReFrames   : 4 frames
Format settings, GOP        : M=3, N=12
Codec ID                    : V_MPEG4/ISO/AVC
Duration                    : 1 h 34 min
Bit rate mode               : Constant
Bit rate                    : 33.0 Mb/s
Width                       : 1 920 pixels
Height                      : 1 080 pixels
Display aspect ratio        : 16:9
Frame rate mode             : Constant
Frame rate                  : 23.976 (24000/1001) FPS
Color space                 : YUV
Chroma subsampling          : 4:2:0
Bit depth                   : 8 bits
Scan type                   : Progressive
Bits/(Pixel*Frame)          : 0.664
Stream size                 : 21.4 GiB (89%)
Title                       : The Bodyguard 2
Language                    : Thai
Default                     : Yes
Forced                      : No
Color range                 : Limited
Color primaries             : BT.709
Transfer characteristics    : BT.709
Matrix coefficients         : BT.709

Audio #1
ID                          : 2
Format                      : DTS
Format/Info                 : Digital Theater Systems
Format profile              : MA / Core
Mode                        : 16
Format settings, Endianness : Big
Codec ID                    : A_DTS
Duration                    : 1 h 34 min
Bit rate mode               : Variable / Constant
Bit rate                    : 1 678 kb/s / 1 509 kb/s
Channel(s)                  : 2 channels
Channel positions           : Front: L R
Sampling rate               : 48.0 kHz
Frame rate                  : 93.750 FPS (512 spf)
Bit depth                   : 16 bits
Compression mode            : Lossless / Lossy
Stream size                 : 1.11 GiB (5%)
Title                       : Turkish
Language                    : Turkish
Default                     : No
Forced                      : No

Audio #2
ID                          : 3
Format                      : DTS
Format/Info                 : Digital Theater Systems
Format profile              : MA / Core
Mode                        : 16
Format settings, Endianness : Big
Codec ID                    : A_DTS
Duration                    : 1 h 34 min
Bit rate mode               : Variable / Constant
Bit rate                    : 2 231 kb/s / 1 509 kb/s
Channel(s)                  : 6 channels
Channel positions           : Front: L C R, Side: L R, LFE
Sampling rate               : 48.0 kHz
Frame rate                  : 93.750 FPS (512 spf)
Bit depth                   : 16 bits
Compression mode            : Lossless / Lossy
Stream size                 : 1.48 GiB (6%)
Title                       : Thai
Language                    : Thai
Default                     : Yes
Forced                      : No

Text #1
ID                          : 4
Format                      : PGS
Muxing mode                 : zlib
Codec ID                    : S_HDMV/PGS
Codec ID/Info               : Picture based subtitle format used on BDs/HD-DVDs
Duration                    : 1 h 34 min
Bit rate                    : 14.0 kb/s
Count of elements           : 1820
Stream size                 : 9.43 MiB (0%)
Title                       : Turkish
Language                    : Turkish
Default                     : Yes
Forced                      : No

Text #2
ID                          : 5
Format                      : PGS
Muxing mode                 : zlib
Codec ID                    : S_HDMV/PGS
Codec ID/Info               : Picture based subtitle format used on BDs/HD-DVDs
Duration                    : 1 h 34 min
Bit rate                    : 13.8 kb/s
Count of elements           : 1820
Stream size                 : 9.31 MiB (0%)
Title                       : English
Language                    : English
Default                     : No
Forced                      : No

[Image: vlcsnap-error256-jpg-251f30f90d14d104758...5b4fd1.jpg]

[Image: vlcsnap-error879-jpg-4742a94d4758544b75a...a6bc9c.jpg]

[Image: tdown.png]

For Only Vip Members

The Bodyguard 2 (2007) Bluray Remux 1080p TR-TAI AVC DTS-HD MA 5.1 VIP
Reply


Possibly Related Threads…
Thread Author Replies Views Last Post
  Om Shanti Om 2007 Bluray Remux 1080p VC-1 TrueHD 5 1- RK KAiJu 0 16 11-09-2021, 07:10 AM
Last Post: KAiJu
  Hitman's Wife's Bodyguard 2021 Extended Cut 1080p Blu-ray Remux AVC DTS-HD MA 7.1 - K KAiJu 0 34 11-03-2021, 11:08 PM
Last Post: KAiJu
  Hot Rod 2007 1080p Remux VC-1 TrueHD 5 1-playBD KAiJu 0 42 09-12-2021, 12:53 PM
Last Post: KAiJu
  The Grand 2007 1080p Blu-ray Remux AVC DTS-HD MA 5.1 - KRaLiMaRKo KAiJu 0 53 09-09-2021, 06:33 AM
Last Post: KAiJu
  The Hitman's Wife's Bodyguard 2021 1080p Blu-ray Remux AVC Atmos - KRaLiMaRKo KAiJu 0 79 08-12-2021, 12:10 PM
Last Post: KAiJu

Forum Jump:


Users browsing this thread: 1 Guest(s)

Powered By MyBB
RSS RSS Syndication
Updated By iAndrew | 2021