Thread Rating:
  • 0 Vote(s) - 0 Average
  • 1
  • 2
  • 3
  • 4
  • 5

[-]
Tags
bluray ballad brown avc 1080p lefty of 2017 the hd ma 1 remux dts 5

  The Ballad of Lefty Brown (2017) Bluray Remux 1080p AVC DTS-HD MA 5.1
#1
The Ballad of Lefty Brown (2017) Bluray Remux 1080p AVC DTS-HD MA 5.1

[Image: tt4400994.jpg]

[Image: imdb.png]
https://www.imdb.com/title/tt4400994/

[Image: info.png]
The Ballad of Lefty Brown 2017 EN.mkv
Format                      : Matroska
Format version              : Version 4 / Version 2
File size                   : 29.9 GiB
Duration                    : 1 h 51 min
Overall bit rate mode       : Variable
Overall bit rate            : 38.3 Mb/s
Movie name                  : The Ballad of Lefty Brown
Encoded date                : UTC 2018-02-14 18:14:26
Writing application         : mkvmerge v20.0.0 ('I Am The Sun') 64-bit
Writing library             : libebml v1.3.5 + libmatroska v1.4.8

Video
ID                          : 1
Format                      : AVC
Format/Info                 : Advanced Video Codec
Format profile              : [email protected]
Format settings             : CABAC / 4 Ref Frames
Format settings, CABAC      : Yes
Format settings, ReFrames   : 4 frames
Codec ID                    : V_MPEG4/ISO/AVC
Duration                    : 1 h 51 min
Bit rate mode               : Variable
Bit rate                    : 34.7 Mb/s
Maximum bit rate            : 37.0 Mb/s
Width                       : 1 920 pixels
Height                      : 1 080 pixels
Display aspect ratio        : 16:9
Frame rate mode             : Constant
Frame rate                  : 23.976 (24000/1001) FPS
Color space                 : YUV
Chroma subsampling          : 4:2:0
Bit depth                   : 8 bits
Scan type                   : Progressive
Bits/(Pixel*Frame)          : 0.697
Stream size                 : 27.1 GiB (91%)
Title                       : The Ballad of Lefty Brown
Language                    : English
Default                     : Yes
Forced                      : No

Audio
ID                          : 2
Format                      : DTS
Format/Info                 : Digital Theater Systems
Format profile              : MA / Core
Codec ID                    : A_DTS
Duration                    : 1 h 51 min
Bit rate mode               : Variable / Constant
Bit rate                    : 3 566 kb/s / 1 509 kb/s
Channel(s)                  : 6 channels
Channel positions           : Front: L C R, Side: L R, LFE
Sampling rate               : 48.0 kHz
Frame rate                  : 93.750 FPS (512 SPF)
Bit depth                   : 24 bits
Compression mode            : Lossless / Lossy
Stream size                 : 2.78 GiB (9%)
Title                       : English
Language                    : English
Default                     : Yes
Forced                      : No

Text #1
ID                          : 3
Format                      : PGS
Muxing mode                 : zlib
Codec ID                    : S_HDMV/PGS
Codec ID/Info               : Picture based subtitle format used on BDs/HD-DVDs
Duration                    : 1 h 51 min
Bit rate                    : 33.5 kb/s
Count of elements           : 2697
Stream size                 : 26.6 MiB (0%)
Title                       : English
Language                    : English
Default                     : No
Forced                      : No

Text #2
ID                          : 4
Format                      : PGS
Muxing mode                 : zlib
Codec ID                    : S_HDMV/PGS
Codec ID/Info               : Picture based subtitle format used on BDs/HD-DVDs
Duration                    : 1 h 43 min
Bit rate                    : 24.4 kb/s
Count of elements           : 2446
Stream size                 : 18.1 MiB (0%)
Title                       : Turkish
Language                    : Turkish
Default                     : Yes
Forced                      : No

[Image: j0GaVo.jpg]

[Image: lNguxr.jpg]

[Image: tdown.png]

For Only Vip Members

The Ballad of Lefty Brown (2017) Bluray Remux 1080p AVC DTS-HD MA 5.1 VIP
Reply


Possibly Related Threads…
Thread Author Replies Views Last Post
  Harry Brown (2009) Bluray Remux 1080p AVC DTS-HD MA 5.1 admin 0 455 06-24-2019, 11:09 AM
Last Post: admin
  Talladega Nights The Ballad of Ricky Bobby (2006) Bluray Remux 1080p MPEG DD 5.1 admin 0 516 06-06-2019, 03:21 PM
Last Post: admin

Forum Jump:


Users browsing this thread: 1 Guest(s)

Powered By MyBB
Theme By Audentio Design
Updated By iAndrew | 2018