Thread Rating:
  • 0 Vote(s) - 0 Average
  • 1
  • 2
  • 3
  • 4
  • 5

[-]
Tags
new h bluray call avc lieutenant 1080p of the port orleans en bad remux dts tr 2009

 
  The Bad Lieutenant Port of Call New Orleans (2009) Bluray Remux 1080p TR-EN AVC DTS-H
#1
The Bad Lieutenant Port of Call New Orleans (2009) Bluray Remux 1080p TR-EN AVC DTS-HD MA 5.1

[Image: tt1095217.jpg]

[Image: imdb.png]
https://www.imdb.com/title/tt1095217/

[Image: info.png]
The Bad Lieutenant Port of Call - New Orleans 2009 TR EN.mkv
Format                      : Matroska
Format version              : Version 4 / Version 2
File size                   : 29.5 GiB
Duration                    : 2 h 1 min
Overall bit rate mode       : Variable
Overall bit rate            : 34.6 Mb/s
Encoded date                : UTC 2014-06-12 16:22:33
Writing application         : mkvmerge v7.0.0 ('Where We Going') 64bit built on Jun  9 2014 15:16:27
Writing library             : libebml v1.3.0 + libmatroska v1.4.1

Video
ID                          : 1
Format                      : AVC
Format/Info                 : Advanced Video Codec
Format profile              : [email protected]
Format settings, CABAC      : Yes
Format settings, ReFrames   : 4 frames
Codec ID                    : V_MPEG4/ISO/AVC
Duration                    : 2 h 1 min
Bit rate mode               : Variable
Bit rate                    : 28.4 Mb/s
Maximum bit rate            : 35.0 Mb/s
Width                       : 1 920 pixels
Height                      : 1 080 pixels
Display aspect ratio        : 16:9
Frame rate mode             : Constant
Frame rate                  : 24.000 FPS
Standard                    : NTSC
Color space                 : YUV
Chroma subsampling          : 4:2:0
Bit depth                   : 8 bits
Scan type                   : Progressive
Bits/(Pixel*Frame)          : 0.571
Stream size                 : 24.2 GiB (82%)
Title                       : The Bad Lieutenant Port of Call - New Orleans
Language                    : English
Default                     : Yes
Forced                      : No
Color range                 : Limited
Color primaries             : BT.709
Transfer characteristics    : BT.709
Matrix coefficients         : BT.709

Audio #1
ID                          : 2
Format                      : DTS
Format/Info                 : Digital Theater Systems
Format profile              : MA / Core
Mode                        : 16
Format settings, Endianness : Big
Codec ID                    : A_DTS
Duration                    : 2 h 1 min
Bit rate mode               : Variable / Constant
Bit rate                    : 2 048 kb/s / 1 509 kb/s
Channel(s)                  : 2 channels
Channel positions           : Front: L R
Sampling rate               : 48.0 kHz
Frame rate                  : 93.750 FPS (512 spf)
Bit depth                   : 24 bits
Compression mode            : Lossless / Lossy
Stream size                 : 1.74 GiB (6%)
Title                       : Turkish
Language                    : Turkish
Default                     : No
Forced                      : No

Audio #2
ID                          : 3
Format                      : DTS
Format/Info                 : Digital Theater Systems
Format profile              : MA / Core
Mode                        : 16
Format settings, Endianness : Big
Codec ID                    : A_DTS
Duration                    : 2 h 1 min
Bit rate mode               : Variable / Constant
Bit rate                    : 4 113 kb/s / 1 509 kb/s
Channel(s)                  : 6 channels
Channel positions           : Front: L C R, Side: L R, LFE
Sampling rate               : 48.0 kHz
Frame rate                  : 93.750 FPS (512 spf)
Bit depth                   : 24 bits
Compression mode            : Lossless / Lossy
Stream size                 : 3.50 GiB (12%)
Title                       : English
Language                    : English
Default                     : Yes
Forced                      : No

Text #1
ID                          : 4
Format                      : PGS
Muxing mode                 : zlib
Codec ID                    : S_HDMV/PGS
Codec ID/Info               : Picture based subtitle format used on BDs/HD-DVDs
Duration                    : 1 h 54 min
Bit rate                    : 27.1 kb/s
Count of elements           : 3081
Stream size                 : 22.2 MiB (0%)
Title                       : Turkish
Language                    : Turkish
Default                     : Yes
Forced                      : No

Text #2
ID                          : 5
Format                      : PGS
Muxing mode                 : zlib
Codec ID                    : S_HDMV/PGS
Codec ID/Info               : Picture based subtitle format used on BDs/HD-DVDs
Duration                    : 1 h 54 min
Bit rate                    : 27.5 kb/s
Count of elements           : 3139
Stream size                 : 22.5 MiB (0%)
Title                       : English
Language                    : English
Default                     : No
Forced                      : No

[Image: vlcsnap-error032-jpg-c8b247769912b80d7eb...12903f.jpg]

[Image: vlcsnap-error535-jpg-a5fec6cb918bf30b660...eb46cc.jpg]

[Image: tdown.png]

For Only Vip Members

The Bad Lieutenant Port of Call New Orleans (2009) Bluray Remux 1080p TR-EN AVC DTS-H VIP
Reply


Possibly Related Threads…
Thread Author Replies Views Last Post
  The Last Station 2009 1080p Blu-ray Remux AVC DTS-HD MA 5.1 - KRaLiMaRKo KAiJu 0 11 11-25-2021, 10:11 AM
Last Post: KAiJu
  G-Force 2009 1080p Blu-ray Remux AVC DTS-HD MA 5.1 - KRaLiMaRKo KAiJu 0 57 09-09-2021, 09:36 AM
Last Post: KAiJu
  Duplicity (2009) Bluray REMUX 1080p VC-1 DTS-HD MA 5.1-HUS AbrA 0 68 07-12-2021, 08:55 AM
Last Post: AbrA
  I Am Love 2009 1080p Remux AVC DTS-HD MA 5.1-playBD KAiJu 0 70 07-09-2021, 07:55 AM
Last Post: KAiJu
  Armored (2009) Bluray REMUX 1080p AVC DTS-HD MA 5.1-HUS AbrA 0 100 05-12-2021, 11:52 AM
Last Post: AbrA

Forum Jump:


Users browsing this thread: 1 Guest(s)

Powered By MyBB
RSS RSS Syndication
Updated By iAndrew | 2021