Thread Rating:
  • 0 Vote(s) - 0 Average
  • 1
  • 2
  • 3
  • 4
  • 5

[-]
Tags
bluray horror amityville avc 1979 1080p the hd ma 1 remux dts 5

 
  The Amityville Horror (1979) Bluray Remux 1080p AVC DTS-HD MA 5.1
#1
The Amityville Horror (1979) Bluray Remux 1080p AVC DTS-HD MA 5.1

[Image: tt0078767.jpg]

[Image: imdb.png]
https://www.imdb.com/title/tt0078767/

[Image: info.png]
The Amityville Horror 1979 EN.mkv
Format                      : Matroska
Format version              : Version 4 / Version 2
File size                   : 28.0 GiB
Duration                    : 1 h 58 min
Overall bit rate mode       : Variable
Overall bit rate            : 33.8 Mb/s
Movie name                  : The Amityville Horror
Encoded date                : UTC 2014-11-07 19:25:54
Writing application         : mkvmerge v7.3.0 ('Nouages') 64bit built on Oct 22 2014 18:53:34
Writing library             : libebml v1.3.0 + libmatroska v1.4.1

Video
ID                          : 1
Format                      : AVC
Format/Info                 : Advanced Video Codec
Format profile              : [email protected]
Format settings, CABAC      : Yes
Format settings, ReFrames   : 3 frames
Codec ID                    : V_MPEG4/ISO/AVC
Duration                    : 1 h 58 min
Bit rate mode               : Variable
Bit rate                    : 30.0 Mb/s
Maximum bit rate            : 35.0 Mb/s
Width                       : 1 920 pixels
Height                      : 1 080 pixels
Display aspect ratio        : 16:9
Frame rate mode             : Constant
Frame rate                  : 23.976 (24000/1001) FPS
Standard                    : NTSC
Color space                 : YUV
Chroma subsampling          : 4:2:0
Bit depth                   : 8 bits
Scan type                   : Progressive
Bits/(Pixel*Frame)          : 0.603
Stream size                 : 24.9 GiB (89%)
Title                       : The Amityville Horror
Language                    : English
Default                     : Yes
Forced                      : No
Color range                 : Limited
Color primaries             : BT.709
Transfer characteristics    : BT.709
Matrix coefficients         : BT.709

Audio
ID                          : 2
Format                      : DTS
Format/Info                 : Digital Theater Systems
Format profile              : MA / Core
Mode                        : 16
Format settings, Endianness : Big
Codec ID                    : A_DTS
Duration                    : 1 h 58 min
Bit rate mode               : Variable / Constant
Bit rate                    : 3 752 kb/s / 1 509 kb/s
Channel(s)                  : 6 channels
Channel positions           : Front: L C R, Side: L R, LFE
Sampling rate               : 48.0 kHz
Frame rate                  : 93.750 FPS (512 spf)
Bit depth                   : 24 bits
Compression mode            : Lossless / Lossy
Stream size                 : 3.11 GiB (11%)
Title                       : English
Language                    : English
Default                     : Yes
Forced                      : No

Text #1
ID                          : 3
Format                      : PGS
Muxing mode                 : zlib
Codec ID                    : S_HDMV/PGS
Codec ID/Info               : Picture based subtitle format used on BDs/HD-DVDs
Duration                    : 1 h 53 min
Bit rate                    : 15.9 kb/s
Count of elements           : 1895
Stream size                 : 12.9 MiB (0%)
Title                       : English
Language                    : English
Default                     : No
Forced                      : No

Text #2
ID                          : 4
Format                      : PGS
Muxing mode                 : zlib
Codec ID                    : S_HDMV/PGS
Codec ID/Info               : Picture based subtitle format used on BDs/HD-DVDs
Duration                    : 1 h 55 min
Bit rate                    : 7 023 b/s
Count of elements           : 1422
Stream size                 : 5.80 MiB (0%)
Title                       : Turkish
Language                    : Turkish
Default                     : Yes
Forced                      : No

[Image: vlcsnap-error123-jpg-5f85b08866f3d3ac6ec...ea1853.jpg]

[Image: vlcsnap-error747-jpg-76b20ead5dd45090b14...ab0ee9.jpg]

[Image: tdown.png]

For Only Vip Members

The Amityville Horror (1979) Bluray Remux 1080p AVC DTS-HD MA 5.1 VIP
Reply


Possibly Related Threads…
Thread Author Replies Views Last Post
  Monty Pythons Life of Brian 1979 1080p BluRay REMUX AVC DTS-HD MA TrueHD 5 1-FGT KAiJu 0 39 04-22-2022, 07:18 AM
Last Post: KAiJu
  The Dark 1979 1080p BluRay REMUX AVC DTS-HD MA 2 0-EPSiLON KAiJu 0 27 04-20-2022, 06:28 AM
Last Post: KAiJu
  Dont Go In The House 1979 1080p Blu-ray Remux AVC LPCM 1 0-HDT KAiJu 0 40 04-11-2022, 02:09 PM
Last Post: KAiJu
  C H O M P S 1979 1080p Blu-ray Remux AVC FLAC 2.0 - KRaLiMaRKo KAiJu 0 28 04-07-2022, 09:24 AM
Last Post: KAiJu
  Horror Noire A History Of Black Horror 2019 1080p Blu-ray Remux AVC DTS-HD MA 5.1-HDT KAiJu 0 44 04-06-2022, 06:33 AM
Last Post: KAiJu

Forum Jump:


Users browsing this thread: 1 Guest(s)

Powered By MyBB
RSS RSS Syndication
Updated By iAndrew | 2022