Thread Rating:
  • 0 Vote(s) - 0 Average
  • 1
  • 2
  • 3
  • 4
  • 5

[-]
Tags
1983 bluray amityville avc 1080p the hd ma 1 remux dts 03 5

 
  The Amityville 03 (1983) Bluray Remux 1080p AVC DTS-HD MA 5.1
#1
The Amityville 03 (1983) Bluray Remux 1080p AVC DTS-HD MA 5.1

[Image: tt0085159.jpg]

[Image: imdb.png]
https://www.imdb.com/title/tt0085159/

[Image: info.png]
The Amityville 03 1983 EN.mkv
Format                      : Matroska
Format version              : Version 4 / Version 2
File size                   : 15.2 GiB
Duration                    : 1 h 33 min
Overall bit rate mode       : Variable
Overall bit rate            : 23.3 Mb/s
Movie name                  : The Amityville 03
Encoded date                : UTC 2014-11-07 20:21:13
Writing application         : mkvmerge v7.3.0 ('Nouages') 64bit built on Oct 22 2014 18:53:34
Writing library             : libebml v1.3.0 + libmatroska v1.4.1

Video
ID                          : 1
Format                      : AVC
Format/Info                 : Advanced Video Codec
Format profile              : [email protected]
Format settings, CABAC      : Yes
Format settings, ReFrames   : 2 frames
Format settings, GOP        : M=1, N=5
Codec ID                    : V_MPEG4/ISO/AVC
Duration                    : 1 h 33 min
Bit rate mode               : Variable
Bit rate                    : 19.9 Mb/s
Maximum bit rate            : 30.2 Mb/s
Width                       : 1 920 pixels
Height                      : 1 080 pixels
Display aspect ratio        : 16:9
Frame rate mode             : Constant
Frame rate                  : 23.976 (24000/1001) FPS
Color space                 : YUV
Chroma subsampling          : 4:2:0
Bit depth                   : 8 bits
Scan type                   : Progressive
Bits/(Pixel*Frame)          : 0.401
Stream size                 : 13.0 GiB (85%)
Title                       : The Amityville 03
Language                    : English
Default                     : Yes
Forced                      : No

Audio
ID                          : 2
Format                      : DTS
Format/Info                 : Digital Theater Systems
Format profile              : MA / Core
Mode                        : 16
Format settings, Endianness : Big
Codec ID                    : A_DTS
Duration                    : 1 h 33 min
Bit rate mode               : Variable / Constant
Bit rate                    : 3 370 kb/s / 1 509 kb/s
Channel(s)                  : 6 channels
Channel positions           : Front: L C R, Side: L R, LFE
Sampling rate               : 48.0 kHz
Frame rate                  : 93.750 FPS (512 spf)
Bit depth                   : 24 bits
Compression mode            : Lossless / Lossy
Stream size                 : 2.19 GiB (14%)
Title                       : English
Language                    : English
Default                     : Yes
Forced                      : No

Text #1
ID                          : 3
Format                      : PGS
Muxing mode                 : zlib
Codec ID                    : S_HDMV/PGS
Codec ID/Info               : Picture based subtitle format used on BDs/HD-DVDs
Duration                    : 1 h 28 min
Bit rate                    : 17.4 kb/s
Count of elements           : 1545
Stream size                 : 10.9 MiB (0%)
Title                       : English
Language                    : English
Default                     : No
Forced                      : No

Text #2
ID                          : 4
Format                      : PGS
Muxing mode                 : zlib
Codec ID                    : S_HDMV/PGS
Codec ID/Info               : Picture based subtitle format used on BDs/HD-DVDs
Duration                    : 1 h 25 min
Bit rate                    : 9 888 b/s
Count of elements           : 1366
Stream size                 : 6.03 MiB (0%)
Title                       : Turkish
Language                    : Turkish
Default                     : Yes
Forced                      : No

[Image: vlcsnap-error418-jpg-e5179bb39343f6649fa...b1d48d.jpg]

[Image: vlcsnap-error901-jpg-49c4986eb1119e8144e...2d7df2.jpg]

[Image: tdown.png]

For Only Vip Members

The Amityville 03 (1983) Bluray Remux 1080p AVC DTS-HD MA 5.1 VIP
Reply


Possibly Related Threads…
Thread Author Replies Views Last Post
  And the Ship Sails On 1983 1080p Blu-ray Remux AVC LPCM 1 0-HDT KAiJu 0 37 10-17-2021, 04:32 PM
Last Post: KAiJu
  Eureka 1983 1080p Blu-ray Remux AVC DTS-HD MA 2 0-HDT KAiJu 0 38 10-10-2021, 10:32 PM
Last Post: KAiJu
  The Meaning of Life 1983 1080p Blu-ray Remux VC-1 DTS-HD MA 5.1 - KRaLiMaRKo KAiJu 1 62 10-01-2021, 05:19 PM
Last Post: SHADNAN
  Rumble Fish 1983 Masters of Cinema 1080p Blu-ray Remux AVC DTS-HD MA 5.1 - KRaLiMaRKo KAiJu 0 51 09-22-2021, 06:43 AM
Last Post: KAiJu
  Easy Money 1983 1080p Blu-ray Remux AVC DTS-HD MA 2.0 - KRaLiMaRKo KAiJu 0 93 06-18-2021, 08:53 AM
Last Post: KAiJu

Forum Jump:


Users browsing this thread: 1 Guest(s)

Powered By MyBB
RSS RSS Syndication
Updated By iAndrew | 2021