Thread Rating:
  • 0 Vote(s) - 0 Average
  • 1
  • 2
  • 3
  • 4
  • 5

[-]
Tags
bluray amityville avc 1080p possession the 02 hd ma 1 remux dts 5 1982

 
  The Amityville 02 The Possession (1982) Bluray Remux 1080p AVC DTS-HD MA 5.1
#1
The Amityville 02 The Possession (1982) Bluray Remux 1080p AVC DTS-HD MA 5.1

[Image: tt0083550.jpg]

[Image: imdb.png]
https://www.imdb.com/title/tt0083550/

[Image: info.png]
The Amityville 02 The Possession 1982 EN.mkv
Format                      : Matroska
Format version              : Version 4 / Version 2
File size                   : 23.6 GiB
Duration                    : 1 h 44 min
Overall bit rate mode       : Variable
Overall bit rate            : 32.4 Mb/s
Movie name                  : Amityville II: The Possession
Encoded date                : UTC 2014-11-07 19:52:24
Writing application         : mkvmerge v7.3.0 ('Nouages') 64bit built on Oct 22 2014 18:53:34
Writing library             : libebml v1.3.0 + libmatroska v1.4.1

Video
ID                          : 1
Format                      : AVC
Format/Info                 : Advanced Video Codec
Format profile              : [email protected]
Format settings, CABAC      : Yes
Format settings, ReFrames   : 3 frames
Codec ID                    : V_MPEG4/ISO/AVC
Duration                    : 1 h 44 min
Bit rate mode               : Variable
Bit rate                    : 30.0 Mb/s
Maximum bit rate            : 35.0 Mb/s
Width                       : 1 920 pixels
Height                      : 1 080 pixels
Display aspect ratio        : 16:9
Frame rate mode             : Constant
Frame rate                  : 23.976 (24000/1001) FPS
Standard                    : NTSC
Color space                 : YUV
Chroma subsampling          : 4:2:0
Bit depth                   : 8 bits
Scan type                   : Progressive
Bits/(Pixel*Frame)          : 0.603
Stream size                 : 21.9 GiB (93%)
Title                       : Amityville II: The Possession
Language                    : English
Default                     : Yes
Forced                      : No
Color range                 : Limited
Color primaries             : BT.709
Transfer characteristics    : BT.709
Matrix coefficients         : BT.709

Audio
ID                          : 2
Format                      : DTS
Format/Info                 : Digital Theater Systems
Format profile              : MA / Core
Mode                        : 16
Format settings, Endianness : Big
Codec ID                    : A_DTS
Duration                    : 1 h 44 min
Bit rate mode               : Variable / Constant
Bit rate                    : 2 363 kb/s / 1 509 kb/s
Channel(s)                  : 6 channels
Channel positions           : Front: L C R, Side: L R, LFE
Sampling rate               : 48.0 kHz
Frame rate                  : 93.750 FPS (512 spf)
Bit depth                   : 24 bits
Compression mode            : Lossless / Lossy
Stream size                 : 1.73 GiB (7%)
Title                       : English
Language                    : English
Default                     : Yes
Forced                      : No

Text #1
ID                          : 3
Format                      : PGS
Muxing mode                 : zlib
Codec ID                    : S_HDMV/PGS
Codec ID/Info               : Picture based subtitle format used on BDs/HD-DVDs
Duration                    : 1 h 40 min
Bit rate                    : 14.8 kb/s
Count of elements           : 1604
Stream size                 : 10.6 MiB (0%)
Title                       : English
Language                    : English
Default                     : No
Forced                      : No

Text #2
ID                          : 4
Format                      : PGS
Muxing mode                 : zlib
Codec ID                    : S_HDMV/PGS
Codec ID/Info               : Picture based subtitle format used on BDs/HD-DVDs
Duration                    : 1 h 40 min
Bit rate                    : 7 488 b/s
Count of elements           : 1366
Stream size                 : 5.37 MiB (0%)
Title                       : Turkish
Language                    : Turkish
Default                     : Yes
Forced                      : No

[Image: vlcsnap-error297-jpg-e71388e1f87e2b2e526...76b635.jpg]

[Image: vlcsnap-error916-jpg-7372c97df084d9174b2...96a568.jpg]

[Image: tdown.png]

For Only Vip Members

The Amityville 02 The Possession (1982) Bluray Remux 1080p AVC DTS-HD MA 5.1 VIP
Reply


Possibly Related Threads…
Thread Author Replies Views Last Post
  Gandhi (1982) Bluray REMUX 1080p AVC TrueHD 5.1-HUS AbrA 0 52 08-14-2021, 02:25 PM
Last Post: AbrA
  Forbidden World 1982 1080p 4k Remastered Blu-ray Remux AVC DTS-HD MA 2 0-WeebRobot KAiJu 0 109 05-24-2021, 09:22 AM
Last Post: KAiJu
  We of the Never Never 1982 1080p Remux AVC DTS-HD MA 2 0-playBD KAiJu 0 99 05-11-2021, 12:21 PM
Last Post: KAiJu
  Annie (1982) Bluray REMUX 1080p AVC DTS-HD MA 5.1-HUS AbrA 0 117 05-10-2021, 12:00 PM
Last Post: AbrA
  The Verdict 1982 1080p Remux AVC DTS-HD MA 5.1-playBD KAiJu 0 83 04-22-2021, 07:20 AM
Last Post: KAiJu

Forum Jump:


Users browsing this thread: 1 Guest(s)

Powered By MyBB
RSS RSS Syndication
Updated By iAndrew | 2021