Thread Rating:
  • 0 Vote(s) - 0 Average
  • 1
  • 2
  • 3
  • 4
  • 5

[-]
Tags
family addams bluray avc 1080p the 1991 hd ma 1 remux dts 5

 
  The Addams Family (1991) Bluray Remux 1080p AVC DTS-HD MA 5.1
#1
The Addams Family (1991) Bluray Remux 1080p AVC DTS-HD MA 5.1

[Image: tt01012721.jpg]

[Image: imdb.png]
https://www.imdb.com/title/tt0101272/

[Image: info.png]
The Addams Family 1991 EN.mkv
Format                      : Matroska
Format version              : Version 4 / Version 2
File size                   : 16.2 GiB
Duration                    : 1 h 39 min
Overall bit rate mode       : Variable
Overall bit rate            : 23.2 Mb/s
Movie name                  : The Addams Family
Encoded date                : UTC 2017-01-19 14:55:39
Writing application         : mkvmerge v9.6.0 ('Slave To Your Mind') 64bit
Writing library             : libebml v1.3.4 + libmatroska v1.4.5

Video
ID                          : 1
Format                      : AVC
Format/Info                 : Advanced Video Codec
Format profile              : [email protected]
Format settings, CABAC      : Yes
Format settings, ReFrames   : 2 frames
Codec ID                    : V_MPEG4/ISO/AVC
Duration                    : 1 h 39 min
Bit rate mode               : Variable
Bit rate                    : 19.0 Mb/s
Width                       : 1 920 pixels
Height                      : 1 080 pixels
Display aspect ratio        : 16:9
Frame rate mode             : Constant
Frame rate                  : 23.976 (24000/1001) FPS
Color space                 : YUV
Chroma subsampling          : 4:2:0
Bit depth                   : 8 bits
Scan type                   : Progressive
Bits/(Pixel*Frame)          : 0.382
Stream size                 : 13.2 GiB (82%)
Title                       : The Addams Family
Language                    : English
Default                     : Yes
Forced                      : No

Audio
ID                          : 2
Format                      : DTS
Format/Info                 : Digital Theater Systems
Format profile              : MA / Core
Mode                        : 16
Format settings, Endianness : Big
Codec ID                    : A_DTS
Duration                    : 1 h 39 min
Bit rate mode               : Variable / Constant
Bit rate                    : 4 215 kb/s / 1 509 kb/s
Channel(s)                  : 6 channels
Channel positions           : Front: L C R, Side: L R, LFE
Sampling rate               : 48.0 kHz
Frame rate                  : 93.750 FPS (512 spf)
Bit depth                   : 24 bits
Compression mode            : Lossless / Lossy
Stream size                 : 2.93 GiB (18%)
Title                       : English
Language                    : English
Default                     : Yes
Forced                      : No

Text #1
ID                          : 3
Format                      : PGS
Muxing mode                 : zlib
Codec ID                    : S_HDMV/PGS
Codec ID/Info               : Picture based subtitle format used on BDs/HD-DVDs
Duration                    : 1 h 30 min
Bit rate                    : 11.1 kb/s
Count of elements           : 2146
Stream size                 : 7.20 MiB (0%)
Title                       : English
Language                    : English
Default                     : No
Forced                      : No

Text #2
ID                          : 4
Format                      : PGS
Muxing mode                 : zlib
Codec ID                    : S_HDMV/PGS
Codec ID/Info               : Picture based subtitle format used on BDs/HD-DVDs
Duration                    : 1 h 30 min
Bit rate                    : 12.7 kb/s
Count of elements           : 2740
Stream size                 : 8.28 MiB (0%)
Title                       : Turkish
Language                    : Turkish
Default                     : Yes
Forced                      : No

[Image: vlcsnap-error398-jpg-63fef85f4b7d3a7e150...c0cf8d.jpg]

[Image: vlcsnap-error487-jpg-018722ad61b1791f825...002f47.jpg]

[Image: tdown.png]

For Only Vip Members

The Addams Family (1991) Bluray Remux 1080p AVC DTS-HD MA 5.1 VIP
Reply


Possibly Related Threads…
Thread Author Replies Views Last Post
  Dead Space 1991 1080p Blu-ray Remux AVC FLAC 2.0 - KRaLiMaRKo KAiJu 0 9 11-24-2021, 11:22 AM
Last Post: KAiJu
  Robin Hood Prince of Thieves (1991) Bluray REMUX 1080p VC-1 TrueHD 5.1-HUS AbrA 0 12 11-15-2021, 07:54 PM
Last Post: AbrA
  Necessary Roughness 1991 1080p Blu-ray Remux AVC DTS-HD MA 5.1-HDT KAiJu 0 39 10-19-2021, 12:20 PM
Last Post: KAiJu
  Dead Again 1991 1080p Blu-ray Remux AVC TrueHD 5 1-HDT KAiJu 0 41 10-17-2021, 04:27 PM
Last Post: KAiJu
  The Boss Baby Family Business 2021 1080p BluRay REMUX AVC Atmos-TRiToN KAiJu 0 43 09-15-2021, 09:54 AM
Last Post: KAiJu

Forum Jump:


Users browsing this thread: 1 Guest(s)

Powered By MyBB
RSS RSS Syndication
Updated By iAndrew | 2021