Thread Rating:
  • 0 Vote(s) - 0 Average
  • 1
  • 2
  • 3
  • 4
  • 5

[-]
Tags
tequila bluray avc 1080p 1988 hd ma 2 remux dts sunrise

 
  Tequila Sunrise (1988) Bluray Remux 1080p AVC DTS-HD MA 2.0
#1
Tequila Sunrise (1988) Bluray Remux 1080p AVC DTS-HD MA 2.0

[Image: tt0096244.jpg]

[Image: imdb.png]
https://www.imdb.com/title/tt0096244/

[Image: info.png]
Tequila Sunrise 1988 EN.mkv
Format                      : Matroska
Format version              : Version 4 / Version 2
File size                   : 17.8 GiB
Duration                    : 1 h 55 min
Overall bit rate mode       : Variable
Overall bit rate            : 22.1 Mb/s
Movie name                  : Tequila Sunrise
Encoded date                : UTC 2015-01-05 21:00:59
Writing application         : mkvmerge v7.4.0 ('Circles') 64bit built on Dec 12 2014 12:19:56
Writing library             : libebml v1.3.0 + libmatroska v1.4.1

Video
ID                          : 1
Format                      : AVC
Format/Info                 : Advanced Video Codec
Format profile              : [email protected]
Format settings, CABAC      : Yes
Format settings, ReFrames   : 2 frames
Codec ID                    : V_MPEG4/ISO/AVC
Duration                    : 1 h 55 min
Bit rate mode               : Variable
Bit rate                    : 20.0 Mb/s
Width                       : 1 920 pixels
Height                      : 1 080 pixels
Display aspect ratio        : 16:9
Frame rate mode             : Constant
Frame rate                  : 23.976 (24000/1001) FPS
Color space                 : YUV
Chroma subsampling          : 4:2:0
Bit depth                   : 8 bits
Scan type                   : Progressive
Bits/(Pixel*Frame)          : 0.402
Stream size                 : 16.1 GiB (90%)
Title                       : Tequila Sunrise
Language                    : English
Default                     : Yes
Forced                      : No

Audio
ID                          : 2
Format                      : DTS
Format/Info                 : Digital Theater Systems
Format profile              : MA / Core
Mode                        : 16
Format settings, Endianness : Big
Codec ID                    : A_DTS
Duration                    : 1 h 55 min
Bit rate mode               : Variable / Constant
Bit rate                    : 2 048 kb/s / 1 509 kb/s
Channel(s)                  : 2 channels
Channel positions           :  / Front: L R
Sampling rate               : 48.0 kHz
Frame rate                  : 93.750 FPS (512 spf)
Bit depth                   : 24 bits
Compression mode            : Lossless / Lossy
Stream size                 : 1.68 GiB (9%)
Title                       : English
Language                    : English
Default                     : Yes
Forced                      : No

Text #1
ID                          : 3
Format                      : PGS
Muxing mode                 : zlib
Codec ID                    : S_HDMV/PGS
Codec ID/Info               : Picture based subtitle format used on BDs/HD-DVDs
Duration                    : 1 h 54 min
Bit rate                    : 16.1 kb/s
Count of elements           : 2992
Stream size                 : 13.2 MiB (0%)
Title                       : English
Language                    : English
Default                     : No
Forced                      : No

Text #2
ID                          : 4
Format                      : PGS
Muxing mode                 : zlib
Codec ID                    : S_HDMV/PGS
Codec ID/Info               : Picture based subtitle format used on BDs/HD-DVDs
Duration                    : 1 h 50 min
Bit rate                    : 12.5 kb/s
Count of elements           : 2556
Stream size                 : 9.89 MiB (0%)
Title                       : Turkish
Language                    : Turkish
Default                     : Yes
Forced                      : No

[Image: vlcsnap-error049-jpg-220b158f0ddeab6f856...43044a.jpg]

[Image: vlcsnap-error595-jpg-6559a51e6350aa91f15...3861c5.jpg]

[Image: tdown.png]

For Only Vip Members

Tequila Sunrise (1988) Bluray Remux 1080p AVC DTS-HD MA 2.0 VIP
Reply


Possibly Related Threads…
Thread Author Replies Views Last Post
  Cocktail 1988 1080p Remux AVC DTS-HD MA 5.1-playBD KAiJu 0 10 11-14-2021, 10:18 PM
Last Post: KAiJu
  Strike Commando (1986-1988) 1080p Blu-ray Remux AVC LPCM 2.0-HDT KAiJu 0 45 10-10-2021, 10:25 PM
Last Post: KAiJu
  Masquerade 1988 1080p BluRay REMUX AVC FLAC 2 0-TRiToN KAiJu 0 41 09-25-2021, 09:07 AM
Last Post: KAiJu
  The Unholy 1988 1080p Remux AVC DTS-HD MA 2 0-playBD KAiJu 0 55 08-10-2021, 06:50 AM
Last Post: KAiJu
  Bloodsport (1988) Bluray REMUX 1080p EN-TR VC-1 DTS-HD MA 2.0 AbrA 0 90 07-27-2021, 12:26 PM
Last Post: AbrA

Forum Jump:


Users browsing this thread: 1 Guest(s)

Powered By MyBB
RSS RSS Syndication
Updated By iAndrew | 2021