Thread Rating:
  • 0 Vote(s) - 0 Average
  • 1
  • 2
  • 3
  • 4
  • 5

[-]
Tags
mutant bluray turtles ninja 1080p 2007 1 vc remux collection 1990 5 teenage truehd

  Teenage Mutant Ninja Turtles Collection (1990-2007) Bluray Remux 1080p VC-1 TrueHD 5.
#1
Teenage Mutant Ninja Turtles Collection (1990-2007) Bluray Remux 1080p VC-1 TrueHD 5.1

[Image: tt0100758.jpg]

[Image: imdb.png]
https://www.imdb.com/title/tt0100758/
https://www.imdb.com/title/tt0103060/
https://www.imdb.com/title/tt0108308/
https://www.imdb.com/title/tt0453556/

[Image: info.png]
Teenage Mutant Ninja Turtles 01 1990 EN.mkv
Format                      : Matroska
Format version              : Version 4 / Version 2
File size                   : 17.8 GiB
Duration                    : 1 h 33 min
Overall bit rate mode       : Variable
Overall bit rate            : 27.3 Mb/s
Movie name                  : Teenage Mutant Ninja Turtles
Encoded date                : UTC 2014-11-15 18:59:06
Writing application         : mkvmerge v7.3.0 ('Nouages') 64bit built on Oct 22 2014 18:53:34
Writing library             : libebml v1.3.0 + libmatroska v1.4.1

Video
ID                          : 1
Format                      : VC-1
Format profile              : [email protected]
Codec ID                    : V_MS/VFW/FOURCC / WVC1
Codec ID/Hint               : Microsoft
Duration                    : 1 h 33 min
Bit rate                    : 25.5 Mb/s
Width                       : 1 920 pixels
Height                      : 1 080 pixels
Display aspect ratio        : 16:9
Frame rate mode             : Constant
Frame rate                  : 23.976 (24000/1001) FPS
Color space                 : YUV
Chroma subsampling          : 4:2:0
Bit depth                   : 8 bits
Scan type                   : Progressive
Compression mode            : Lossy
Bits/(Pixel*Frame)          : 0.513
Stream size                 : 16.7 GiB (93%)
Title                       : Teenage Mutant Ninja Turtles
Language                    : English
Default                     : Yes
Forced                      : No

Audio
ID                          : 2
Format                      : TrueHD
Codec ID                    : A_TRUEHD
Duration                    : 1 h 33 min
Bit rate mode               : Variable
Bit rate                    : 1 700 kb/s
Maximum bit rate            : 3 168 kb/s
Channel(s)                  : 6 channels
Channel positions           : Front: L C R, Side: L R, LFE
Sampling rate               : 48.0 kHz
Frame rate                  : 1 200.000 FPS (40 spf)
Compression mode            : Lossless
Stream size                 : 1.11 GiB (6%)
Title                       : English
Language                    : English
Default                     : Yes
Forced                      : No

Text #1
ID                          : 3
Format                      : PGS
Muxing mode                 : zlib
Codec ID                    : S_HDMV/PGS
Codec ID/Info               : Picture based subtitle format used on BDs/HD-DVDs
Duration                    : 1 h 32 min
Bit rate                    : 14.0 kb/s
Count of elements           : 2710
Stream size                 : 9.30 MiB (0%)
Title                       : English
Language                    : English
Default                     : No
Forced                      : No

Text #2
ID                          : 4
Format                      : PGS
Muxing mode                 : zlib
Codec ID                    : S_HDMV/PGS
Codec ID/Info               : Picture based subtitle format used on BDs/HD-DVDs
Duration                    : 1 h 27 min
Bit rate                    : 11.9 kb/s
Count of elements           : 1946
Stream size                 : 7.45 MiB (0%)
Title                       : Turkish
Language                    : Turkish
Default                     : Yes
Forced                      : No

[Image: vlcsnap-error650-jpg-09b10f2a9c99c0a5101...f6f65b.jpg]

[Image: vlcsnap-error782-jpg-dcd5dc69af7a8a9b715...2f1578.jpg]

[Image: tdown.png]

For Only Vip Members

Teenage Mutant Ninja Turtles Collection (1990-2007) Bluray Remux 1080p VC-1 TrueHD 5. VIP
Reply


Possibly Related Threads…
Thread Author Replies Views Last Post
  The Kingdom 2007 1080p Blu-ray Remux VC-1 DTS-HD MA 5.1 - KRaLiMaRKo KAiJu 0 98 11-19-2020, 11:50 AM
Last Post: KAiJu
  Cluny Brown 1946 Criterion Collection Repack 1080p Blu-ray Remux AVC FLAC 1.0 - KRaLi KAiJu 0 79 11-19-2020, 11:27 AM
Last Post: KAiJu
  Trust 1990 1080p Blu-ray Remux AVC FLAC 1.0 - KRaLiMaRKo KAiJu 0 61 10-27-2020, 03:18 PM
Last Post: KAiJu
  The Hills Have Eyes I-II (2006-2007) Bluray REMUX 1080p AVC DTS-HD MA 5.1-HUSe AbrA 1 178 10-11-2020, 06:24 PM
Last Post: pastifox
  The Hunt for Red October (1990) Bluray REMUX 1080p AVC TrueHD 5.1-HUSe AbrA 0 110 10-05-2020, 01:58 PM
Last Post: AbrA

Forum Jump:


Users browsing this thread: 1 Guest(s)

Powered By MyBB
Theme By Audentio Design
Updated By iAndrew | 2018