Thread Rating:
  • 0 Vote(s) - 0 Average
  • 1
  • 2
  • 3
  • 4
  • 5

[-]
Tags
bluray taxi quadrilogy 810p x264 prodji 2007 1998 dts

  Taxi Quadrilogy (1998-2007) BluRay 810p DTS x264-PRoDJi
#1
Taxi Quadrilogy (1998-2007) BluRay 810p DTS x264-PRoDJi

[Image: taxi.4.jpg]

[Image: imdb.png]
https://www.imdb.com/title/tt0152930/
https://www.imdb.com/title/tt0183869/
https://www.imdb.com/title/tt0295721/
https://www.imdb.com/title/tt0804540/

[Image: info.png]
Format : Matroska
Format version : Version 2
File size : 4.37 GiB
Duration : 1 h 31 min
Overall bit rate : 6 860 kb/s
Encoded date : UTC 2013-05-11 10:04:44
Writing application : mkvmerge v5.5.0 ('Healer') built on Apr 6 2012 21:43:24
Writing library : libebml v1.2.3 + libmatroska v1.3.0

Video
ID : 1
Format : AVC
Format/Info : Advanced Video Codec
Format profile : [email protected]
Format settings : CABAC / 9 Ref Frames
Format settings, CABAC : Yes
Format settings, RefFrames : 9 frames
Codec ID : V_MPEG4/ISO/AVC
Duration : 1 h 31 min
Bit rate : 5 254 kb/s
Width : 1 440 pixels
Height : 612 pixels
Display aspect ratio : 2.35:1
Frame rate mode : Constant
Frame rate : 23.976 FPS
Color space : YUV
Chroma subsampling : 4:2:0
Bit depth : 8 bits
Scan type : Progressive
Bits/(Pixel*Frame) : 0.249
Stream size : 3.20 GiB (73%)
Title : @5255Kbps High Profiles @L4.1
Writing library : x264 core 130 r2273 b3065e6
Encoding settings : cabac=1 / ref=9 / deblock=1:-2:-2 / analyse=0x3:0x113 / me=hex / subme=9 / psy=1 / psy_rd=1.00:0.00 / mixed_ref=1 / me_range=16 / chroma_me=1 / trellis=0 / 8x8dct=1 / cqm=0 / deadzone=21,11 / fast_pskip=1 / chroma_qp_offset=-2 / threads=4 / lookahead_threads=1 / sliced_threads=0 / nr=0 / decimate=0 / interlaced=0 / bluray_compat=0 / constrained_intra=0 / bframes=3 / b_pyramid=2 / b_adapt=1 / b_bias=0 / direct=1 / weightb=1 / open_gop=0 / weightp=2 / keyint=240 / keyint_min=23 / scenecut=40 / intra_refresh=0 / rc_lookahead=40 / rc=2pass / mbtree=1 / bitrate=5254 / ratetol=2.0 / qcomp=0.60 / qpmin=10 / qpmax=51 / qpstep=4 / cplxblur=20.0 / qblur=0.5 / vbv_maxrate=38000 / vbv_bufsize=30000 / nal_hrd=none / ip_ratio=1.40 / aq=1:1.00
Language : English
Default : Yes
Forced : No

Audio #1
ID : 2
Format : AC-3
Format/Info : Audio Coding 3
Commercial name : Dolby Digital
Codec ID : A_AC3
Duration : 1 h 31 min
Bit rate mode : Constant
Bit rate : 192 kb/s
Channel(s) : 2 channels
Channel layout : L R
Sampling rate : 48.0 kHz
Frame rate : 31.250 FPS (1536 SPF)
Bit depth : 16 bits
Compression mode : Lossy
Delay relative to video : 8 ms
Stream size : 125 MiB (3%)
Title : [email protected] 2 chnls
Language : Turkish
Service kind : Complete Main
Default : Yes
Forced : No

Audio #2
ID : 3
Format : DTS
Format/Info : Digital Theater Systems
Codec ID : A_DTS
Duration : 1 h 31 min
Bit rate mode : Constant
Bit rate : 1 509 kb/s
Channel(s) : 6 channels
Channel layout : C L R Ls Rs LFE
Sampling rate : 48.0 kHz
Frame rate : 93.750 FPS (512 SPF)
Bit depth : 24 bits
Compression mode : Lossy
Stream size : 984 MiB (22%)
Title : [email protected] 6 chnls
Language : French
Default : No
Forced : No

[Image: 1.jpg]

[Image: 2.jpg]

[Image: tdown.png]

For Only Vip Members
Reply


Possibly Related Threads…
Thread Author Replies Views Last Post
  DC Showcase The Spectre (2010) BluRay 1080p DTS x264-PRoDJi admin 2 328 07-24-2019, 06:27 PM
Last Post: admin
  DC Universe Animaton Movie (1993-2008) Boxset Bluray 1080p TR-EN x264 DTS 5.1-PRoDJi admin 0 88 07-20-2019, 05:30 PM
Last Post: admin
  The House (1985-1992) Collection BluRay 1080p DTS x264-PRoDJi admin 3 452 05-13-2019, 02:39 PM
Last Post: Brooks
  American History X (1998) Bluray 1080p DUAL DTS x264-NoGroup admin 0 158 05-13-2019, 01:53 PM
Last Post: admin
  The Commuter (2018) BluRay 1080p TR-EN DTS x264 PRoDJi admin 0 365 03-10-2019, 09:28 PM
Last Post: admin

Forum Jump:


Users browsing this thread: 1 Guest(s)

Powered By MyBB
Theme By Audentio Design
Updated By iAndrew | 2018