Thread Rating:
  • 0 Vote(s) - 0 Average
  • 1
  • 2
  • 3
  • 4
  • 5

[-]
Tags
dd bluray 1999 avc 1080p en 1 remux 5 tr tarzan

  Tarzan (1999) Bluray Remux 1080p TR-EN AVC DD 5.1
#1
Tarzan (1999) Bluray Remux 1080p TR-EN AVC DD 5.1

[Image: tt0120855.jpg]

[Image: imdb.png]
https://www.imdb.com/title/tt0120855/

[Image: info.png]
Tarzan 1999 TR EN.mkv
Format                      : Matroska
Format version              : Version 4 / Version 2
File size                   : 15.0 GiB
Duration                    : 1 h 31 min
Overall bit rate mode       : Variable
Overall bit rate            : 23.4 Mb/s
Encoded date                : UTC 2013-06-26 13:01:22
Writing application         : mkvmerge v6.2.0 ('Promised Land') built on Apr 28 2013 12:22:01
Writing library             : libebml v1.3.0 + libmatroska v1.4.0

Video
ID                          : 1
Format                      : AVC
Format/Info                 : Advanced Video Codec
Format profile              : [email protected]
Format settings             : CABAC / 4 Ref Frames
Format settings, CABAC      : Yes
Format settings, ReFrames   : 4 frames
Format settings, GOP        : M=3, N=24
Codec ID                    : V_MPEG4/ISO/AVC
Duration                    : 1 h 31 min
Bit rate mode               : Variable
Bit rate                    : 21.7 Mb/s
Maximum bit rate            : 35.0 Mb/s
Width                       : 1 920 pixels
Height                      : 1 080 pixels
Display aspect ratio        : 16:9
Frame rate mode             : Constant
Frame rate                  : 23.976 (24000/1001) FPS
Standard                    : NTSC
Color space                 : YUV
Chroma subsampling          : 4:2:0
Bit depth                   : 8 bits
Scan type                   : Progressive
Bits/(Pixel*Frame)          : 0.436
Stream size                 : 13.9 GiB (93%)
Title                       : Tarzan
Language                    : English
Default                     : Yes
Forced                      : No
Color range                 : Limited
Color primaries             : BT.709
Transfer characteristics    : BT.709
Matrix coefficients         : BT.709

Audio #1
ID                          : 2
Format                      : AC-3
Format/Info                 : Audio Coding 3
Codec ID                    : A_AC3
Duration                    : 1 h 31 min
Bit rate mode               : Constant
Bit rate                    : 640 kb/s
Channel(s)                  : 6 channels
Channel positions           : Front: L C R, Side: L R, LFE
Sampling rate               : 48.0 kHz
Frame rate                  : 31.250 FPS (1536 SPF)
Bit depth                   : 16 bits
Compression mode            : Lossy
Stream size                 : 420 MiB (3%)
Title                       : English
Language                    : English
Service kind                : Complete Main
Default                     : Yes
Forced                      : No

Audio #2
ID                          : 3
Format                      : AC-3
Format/Info                 : Audio Coding 3
Codec ID                    : A_AC3
Duration                    : 1 h 31 min
Bit rate mode               : Constant
Bit rate                    : 640 kb/s
Channel(s)                  : 6 channels
Channel positions           : Front: L C R, Side: L R, LFE
Sampling rate               : 48.0 kHz
Frame rate                  : 31.250 FPS (1536 SPF)
Bit depth                   : 16 bits
Compression mode            : Lossy
Stream size                 : 420 MiB (3%)
Title                       : Turkish
Language                    : Turkish
Service kind                : Complete Main
Default                     : No
Forced                      : No

Text #1
ID                          : 4
Format                      : PGS
Muxing mode                 : zlib
Codec ID                    : S_HDMV/PGS
Codec ID/Info               : Picture based subtitle format used on BDs/HD-DVDs
Title                       : English
Language                    : English
Default                     : No
Forced                      : No

Text #2
ID                          : 5
Format                      : PGS
Muxing mode                 : zlib
Codec ID                    : S_HDMV/PGS
Codec ID/Info               : Picture based subtitle format used on BDs/HD-DVDs
Title                       : Turkish
Language                    : Turkish
Default                     : Yes
Forced                      : No

[Image: GcymNB.jpg]

[Image: 3riMjN.jpg]

[Image: tdown.png]

For Only Vip Members

Tarzan (1999) Bluray Remux 1080p TR-EN AVC DD 5.1 VIP
Reply


Possibly Related Threads…
Thread Author Replies Views Last Post
  Stir Of Echoes (1999) Bluray REMUX 1080p AVC DTS-HD MA 6.1 AbrA 0 146 07-07-2020, 07:55 AM
Last Post: AbrA
  The Thirteenth Floor (1999) Bluray Remux 1080p AVC TrueHD 5.1 admin 0 567 09-02-2019, 03:01 PM
Last Post: admin
  Tarzan (2013) Bluray Remux 1080p AVC DTS-HRA 5.1 admin 0 417 08-24-2019, 11:10 AM
Last Post: admin
  The Boondock Saints 1-2 (1999-2009) Bluray Remux 1080p AVC DTS-HD MA 5.1 admin 1 792 08-22-2019, 09:20 PM
Last Post: spyet
  Fight Club (1999) Bluray Remux 1080p AVC DTS-HD MA 5.1 admin 0 659 07-20-2019, 05:49 PM
Last Post: admin

Forum Jump:


Users browsing this thread: 1 Guest(s)

Powered By MyBB
Theme By Audentio Design
Updated By iAndrew | 2018