Thread Rating:
  • 0 Vote(s) - 0 Average
  • 1
  • 2
  • 3
  • 4
  • 5

[-]
Tags
bluray 1989 1080p cash and 1 vc remux tango 5 truehd

 
  Tango And Cash (1989) Bluray Remux 1080p VC-1 TrueHD 5.1
#1
Tango And Cash (1989) Bluray Remux 1080p VC-1 TrueHD 5.1

[Image: tt0098439.jpg]

[Image: imdb.png]
https://www.imdb.com/title/tt0098439/

[Image: info.png]
Tango & Cash 1989 EN.mkv
Format                      : Matroska
Format version              : Version 4 / Version 2
File size                   : 15.4 GiB
Duration                    : 1 h 43 min
Overall bit rate mode       : Variable
Overall bit rate            : 21.2 Mb/s
Movie name                  : Tango and Cash
Encoded date                : UTC 2015-07-05 20:05:17
Writing application         : mkvmerge v8.1.0 ('Psychedelic Postcard') 64bit
Writing library             : libebml v1.3.1 + libmatroska v1.4.2

Video
ID                          : 1
Format                      : VC-1
Format profile              : [email protected]
Codec ID                    : V_MS/VFW/FOURCC / WVC1
Codec ID/Hint               : Microsoft
Duration                    : 1 h 43 min
Bit rate                    : 18.7 Mb/s
Width                       : 1 920 pixels
Height                      : 1 080 pixels
Display aspect ratio        : 16:9
Frame rate mode             : Constant
Frame rate                  : 23.976 (24000/1001) FPS
Color space                 : YUV
Chroma subsampling          : 4:2:0
Bit depth                   : 8 bits
Scan type                   : Progressive
Compression mode            : Lossy
Bits/(Pixel*Frame)          : 0.376
Stream size                 : 13.5 GiB (88%)
Title                       : Tango and Cash
Language                    : English
Default                     : Yes
Forced                      : No

Audio #1
ID                          : 2
Format                      : TrueHD
Codec ID                    : A_TRUEHD
Duration                    : 1 h 43 min
Bit rate mode               : Variable
Bit rate                    : 1 787 kb/s
Maximum bit rate            : 2 871 kb/s
Channel(s)                  : 6 channels
Channel positions           : Front: L C R, Side: L R, LFE
Sampling rate               : 48.0 kHz
Frame rate                  : 1 200.000 FPS (40 SPF)
Compression mode            : Lossless
Stream size                 : 1.30 GiB (8%)
Title                       : English
Language                    : English
Default                     : Yes
Forced                      : No

Audio #2
ID                          : 3
Format                      : AC-3
Format/Info                 : Audio Coding 3
Codec ID                    : A_AC3
Duration                    : 1 h 43 min
Bit rate mode               : Constant
Bit rate                    : 640 kb/s
Channel(s)                  : 6 channels
Channel positions           : Front: L C R, Side: L R, LFE
Sampling rate               : 48.0 kHz
Frame rate                  : 31.250 FPS (1536 SPF)
Bit depth                   : 16 bits
Compression mode            : Lossy
Stream size                 : 475 MiB (3%)
Title                       : English
Language                    : English
Service kind                : Complete Main
Default                     : No
Forced                      : No

Text #1
ID                          : 4
Format                      : PGS
Muxing mode                 : zlib
Codec ID                    : S_HDMV/PGS
Codec ID/Info               : Picture based subtitle format used on BDs/HD-DVDs
Duration                    : 1 h 43 min
Bit rate                    : 14.5 kb/s
Count of elements           : 2618
Stream size                 : 10.8 MiB (0%)
Title                       : English
Language                    : English
Default                     : No
Forced                      : No

Text #2
ID                          : 5
Format                      : PGS
Muxing mode                 : zlib
Codec ID                    : S_HDMV/PGS
Codec ID/Info               : Picture based subtitle format used on BDs/HD-DVDs
Duration                    : 1 h 43 min
Bit rate                    : 10.7 kb/s
Count of elements           : 2504
Stream size                 : 7.93 MiB (0%)
Title                       : Turkish
Language                    : Turkish
Default                     : Yes
Forced                      : No

[Image: NQgk2X.jpg]

[Image: 4VILaE.jpg]

[Image: tdown.png]

For Only Vip Members

Tango And Cash (1989) Bluray Remux 1080p VC-1 TrueHD 5.1 VIP
Reply


Possibly Related Threads…
Thread Author Replies Views Last Post
  Deadly Games 1989 1080p Blu-ray Remux AVC DTS-HD MA 2 0-HDT KAiJu 0 21 01-02-2022, 03:52 PM
Last Post: KAiJu
  UHF 1989 1080p Blu-ray Remux AVC DTS-HD MA 2.0 - KRaLiMaRKo KAiJu 0 35 12-02-2021, 01:51 PM
Last Post: KAiJu
  Hitcher in the Dark 1989 1080p Blu-ray Remux AVC DTS-HD MA 2 0-HDT KAiJu 0 27 11-30-2021, 02:50 PM
Last Post: KAiJu
  My Left Foot The Story of Christy Brown 1989 1080p Blu-ray Remux AVC DTS-HD MA 2 0-HD KAiJu 0 30 11-28-2021, 08:16 AM
Last Post: KAiJu
  The Immortalizer 1989 1080p Blu-ray Remux AVC DTS-HD MA 2 0-HDT KAiJu 0 26 11-25-2021, 10:07 AM
Last Post: KAiJu

Forum Jump:


Users browsing this thread: 1 Guest(s)

Powered By MyBB
RSS RSS Syndication
Updated By iAndrew | 2022