Thread Rating:
  • 0 Vote(s) - 0 Average
  • 1
  • 2
  • 3
  • 4
  • 5

[-]
Tags
bluray 2002 vengeance avc 1080p sympathy hd ma 1 remux for mr dts 5

 
  Sympathy for Mr Vengeance (2002) Bluray Remux 1080p AVC DTS-HD MA 5.1
#1
Sympathy for Mr Vengeance (2002) Bluray Remux 1080p AVC DTS-HD MA 5.1

[Image: tt0310775.jpg]

[Image: imdb.png]
https://www.imdb.com/title/tt0310775/

[Image: info.png]
Sympathy for Mr. Vengeance aka Boksuneun Naui Geot 2002 KO.mkv
Format                      : Matroska
Format version              : Version 4 / Version 2
File size                   : 22.9 GiB
Duration                    : 2 h 1 min
Overall bit rate mode       : Variable
Overall bit rate            : 27.1 Mb/s
Movie name                  : Sympathy for Mr. Vengeance aka Boksuneun Naui Geot
Encoded date                : UTC 2016-12-09 18:55:04
Writing application         : mkvmerge v9.6.0 ('Slave To Your Mind') 64bit
Writing library             : libebml v1.3.4 + libmatroska v1.4.5

Video
ID                          : 1
Format                      : AVC
Format/Info                 : Advanced Video Codec
Format profile              : [email protected]
Format settings             : CABAC / 4 Ref Frames
Format settings, CABAC      : Yes
Format settings, ReFrames   : 4 frames
Codec ID                    : V_MPEG4/ISO/AVC
Duration                    : 2 h 1 min
Bit rate mode               : Variable
Bit rate                    : 25.0 Mb/s
Maximum bit rate            : 33.0 Mb/s
Width                       : 1 920 pixels
Height                      : 1 080 pixels
Display aspect ratio        : 16:9
Frame rate mode             : Constant
Frame rate                  : 23.976 (24000/1001) FPS
Color space                 : YUV
Chroma subsampling          : 4:2:0
Bit depth                   : 8 bits
Scan type                   : Progressive
Bits/(Pixel*Frame)          : 0.502
Stream size                 : 21.1 GiB (92%)
Title                       : Sympathy for Mr. Vengeance aka Boksuneun Naui Geot
Language                    : Korean
Default                     : Yes
Forced                      : No
Color range                 : Limited
Color primaries             : BT.709
Transfer characteristics    : BT.709
Matrix coefficients         : BT.709

Audio
ID                          : 2
Format                      : DTS
Format/Info                 : Digital Theater Systems
Format profile              : MA / Core
Codec ID                    : A_DTS
Duration                    : 2 h 1 min
Bit rate mode               : Variable / Constant
Bit rate                    : 2 091 kb/s / 1 509 kb/s
Channel(s)                  : 6 channels
Channel positions           : Front: L C R, Side: L R, LFE
Sampling rate               : 48.0 kHz
Frame rate                  : 93.750 FPS (512 SPF)
Bit depth                   : 16 bits
Compression mode            : Lossless / Lossy
Stream size                 : 1.77 GiB (8%)
Title                       : Korean
Language                    : Korean
Default                     : Yes
Forced                      : No

Text #1
ID                          : 3
Format                      : PGS
Muxing mode                 : zlib
Codec ID                    : S_HDMV/PGS
Codec ID/Info               : Picture based subtitle format used on BDs/HD-DVDs
Duration                    : 1 h 56 min
Bit rate                    : 3 029 b/s
Count of elements           : 908
Stream size                 : 2.52 MiB (0%)
Title                       : English
Language                    : English
Default                     : No
Forced                      : No

Text #2
ID                          : 4
Format                      : PGS
Muxing mode                 : zlib
Codec ID                    : S_HDMV/PGS
Codec ID/Info               : Picture based subtitle format used on BDs/HD-DVDs
Duration                    : 1 h 56 min
Bit rate                    : 3 303 b/s
Count of elements           : 772
Stream size                 : 2.75 MiB (0%)
Title                       : Turkish
Language                    : Turkish
Default                     : Yes
Forced                      : No

[Image: vlcsnap-error479-jpg-e5495c717446704e176...d1b167.jpg]

[Image: vlcsnap-error765-jpg-80613a2c3bfd1c2bcdd...97c133.jpg]

[Image: tdown.png]

For Only Vip Members

Sympathy for Mr Vengeance (2002) Bluray Remux 1080p AVC DTS-HD MA 5.1 VIP
Reply


Possibly Related Threads…
Thread Author Replies Views Last Post
  D-Tox (2002) Bluray REMUX 1080p VC-1 DTS-HD MA 5.1-HUS AbrA 0 23 07-03-2021, 09:19 AM
Last Post: AbrA
  25th Hour 2002 1080p Blu-ray Remux AVC DTS-HD MA 5.1-HDfella KAiJu 0 83 04-23-2021, 09:51 AM
Last Post: KAiJu
  Unfaithful (2002) Bluray REMUX 1080p AVC DTS-HD MA 5.1-HUS AbrA 0 101 04-06-2021, 02:37 PM
Last Post: AbrA
  The Kid Stays in the Picture 2002 1080p Blu-ray Remux AVC DTS-HD MA 5.1 - KRaLiMaRKo KAiJu 0 263 02-22-2021, 11:17 AM
Last Post: KAiJu
  The Rules Of Attraction (2002) Bluray REMUX 1080p AVC DTS-HD MA 5.1-HUS AbrA 0 267 02-19-2021, 10:48 AM
Last Post: AbrA

Forum Jump:


Users browsing this thread: 1 Guest(s)

Powered By MyBB
RSS RSS Syndication
Updated By iAndrew | 2021