Thread Rating:
  • 0 Vote(s) - 0 Average
  • 1
  • 2
  • 3
  • 4
  • 5

[-]
Tags
with bluray avcdts 1080p fr wolves 2007 hd ma 1 remux 5 surviving tr

 
  Surviving With Wolves (2007) Bluray Remux 1080p TR-FR AVCDTS-HD MA 5.1
#1
Surviving With Wolves (2007) Bluray Remux 1080p TR-FR AVCDTS-HD MA 5.1

[Image: tt0962782.jpg]

[Image: imdb.png]
https://www.imdb.com/title/tt0962782/

[Image: info.png]
Surviving With Wolves aka Survivre Avec Les Loups 2007 TR FR.mkv
Format                      : Matroska
Format version              : Version 4 / Version 2
File size                   : 19.7 GiB
Duration                    : 2 h 3 min
Overall bit rate mode       : Variable
Overall bit rate            : 22.8 Mb/s
Movie name                  : Surviving With Wolves aka Survivre Avec Les Loups
Encoded date                : UTC 2017-11-24 03:22:29
Writing application         : mkvmerge v18.0.0 ('Apricity') 64-bit
Writing library             : libebml v1.3.5 + libmatroska v1.4.8

Video
ID                          : 1
Format                      : AVC
Format/Info                 : Advanced Video Codec
Format profile              : [email protected]
Format settings, CABAC      : Yes
Format settings, ReFrames   : 3 frames
Format settings, GOP        : M=2, N=24
Codec ID                    : V_MPEG4/ISO/AVC
Duration                    : 2 h 3 min
Bit rate mode               : Variable
Bit rate                    : 19.1 Mb/s
Maximum bit rate            : 28.5 Mb/s
Width                       : 1 920 pixels
Height                      : 1 080 pixels
Display aspect ratio        : 16:9
Frame rate mode             : Constant
Frame rate                  : 24.000 FPS
Standard                    : NTSC
Color space                 : YUV
Chroma subsampling          : 4:2:0
Bit depth                   : 8 bits
Scan type                   : Progressive
Bits/(Pixel*Frame)          : 0.383
Stream size                 : 16.4 GiB (84%)
Title                       : Surviving With Wolves aka Survivre Avec Les Loups
Language                    : French
Default                     : Yes
Forced                      : No
Color range                 : Limited

Audio #1
ID                          : 2
Format                      : DTS
Format/Info                 : Digital Theater Systems
Format profile              : MA / Core
Mode                        : 16
Format settings, Endianness : Big
Codec ID                    : A_DTS
Duration                    : 2 h 3 min
Bit rate mode               : Variable / Constant
Bit rate                    : 2 000 kb/s / 1 509 kb/s
Channel(s)                  : 6 channels
Channel positions           : Front: L C R, Side: L R, LFE
Sampling rate               : 48.0 kHz
Frame rate                  : 93.750 FPS (512 spf)
Bit depth                   : 16 bits
Compression mode            : Lossless / Lossy
Stream size                 : 1.72 GiB (9%)
Title                       : Turkish
Language                    : Turkish
Default                     : No
Forced                      : No

Audio #2
ID                          : 3
Format                      : DTS
Format/Info                 : Digital Theater Systems
Format profile              : MA / Core
Mode                        : 16
Format settings, Endianness : Big
Codec ID                    : A_DTS
Duration                    : 2 h 3 min
Bit rate mode               : Variable / Constant
Bit rate                    : 1 724 kb/s / 768 kb/s
Channel(s)                  : 6 channels
Channel positions           : Front: L C R, Side: L R, LFE
Sampling rate               : 48.0 kHz
Frame rate                  : 93.750 FPS (512 spf)
Bit depth                   : 16 bits
Compression mode            : Lossless / Lossy
Stream size                 : 1.49 GiB (8%)
Title                       : French
Language                    : French
Default                     : Yes
Forced                      : No

Text
ID                          : 4
Format                      : PGS
Muxing mode                 : zlib
Codec ID                    : S_HDMV/PGS
Codec ID/Info               : Picture based subtitle format used on BDs/HD-DVDs
Duration                    : 1 h 59 min
Bit rate                    : 33.8 kb/s
Count of elements           : 1541
Stream size                 : 29.0 MiB (0%)
Title                       : Turkish
Language                    : Turkish
Default                     : Yes
Forced                      : No

[Image: 47835616781_2bafdc51f9_b.jpg]

[Image: 47835619581_c017226943_b.jpg]

[Image: tdown.png]

For Only Vip Members

Surviving With Wolves (2007) Bluray Remux 1080p TR-FR AVCDTS-HD MA 5.1 VIP
Reply


Possibly Related Threads…
Thread Author Replies Views Last Post
  Heroes of War Assembly 2007 1080p Blu-ray Remux AVC DTS-HD MA 5.1-HDT KAiJu 0 2 05-23-2022, 02:48 PM
Last Post: KAiJu
  In the Land of Women 2007 1080p Blu-ray Remux AVC DTS-HD MA 5.1 - KRaLiMaRKo KAiJu 0 45 04-29-2022, 09:51 AM
Last Post: KAiJu
  Spring 1941 2007 Blu-ray Remux AVC DTS-HD MA 2.0 - KRaLiMaRKo KAiJu 0 59 03-24-2022, 07:51 AM
Last Post: KAiJu
  I Now Pronounce You Chuck and Larry 2007 1080p Blu-ray Remux VC-1 DTS-HD MA 5.1 - KRa KAiJu 0 75 02-24-2022, 12:32 PM
Last Post: KAiJu
  Eichmann 2007 1080p Blu-ray Remux MPEG-2 DTS-HD MA 5.1 - KRaLiMaRKo KAiJu 0 51 02-21-2022, 06:52 AM
Last Post: KAiJu

Forum Jump:


Users browsing this thread: 1 Guest(s)

Powered By MyBB
RSS RSS Syndication
Updated By iAndrew | 2022