Thread Rating:
  • 0 Vote(s) - 0 Average
  • 1
  • 2
  • 3
  • 4
  • 5

[-]
Tags
bluray straight 2015 avc 1080p outta compton hd ma 1 remux dts 5

  Straight Outta Compton (2015) Bluray Remux 1080p AVC DTS-HD MA 5.1
#1
Straight Outta Compton (2015) Bluray Remux 1080p AVC DTS-HD MA 5.1

[Image: tt1398426.jpg]

[Image: imdb.png]
https://www.imdb.com/title/tt1398426/

[Image: info.png]
Straight Outta Compton 2015 EN.mkv
Format                      : Matroska
Format version              : Version 4 / Version 2
File size                   : 33.0 GiB
Duration                    : 2 h 26 min
Overall bit rate mode       : Variable
Overall bit rate            : 32.3 Mb/s
Movie name                  : Straight Outta Compton
Encoded date                : UTC 2016-01-25 14:26:49
Writing application         : mkvmerge v8.3.0 ('Over the Horizon') 64bit
Writing library             : libebml v1.3.1 + libmatroska v1.4.2

Video
ID                          : 1
Format                      : AVC
Format/Info                 : Advanced Video Codec
Format profile              : [email protected]
Format settings             : CABAC / 4 Ref Frames
Format settings, CABAC      : Yes
Format settings, ReFrames   : 4 frames
Codec ID                    : V_MPEG4/ISO/AVC
Duration                    : 2 h 26 min
Bit rate mode               : Variable
Bit rate                    : 28.9 Mb/s
Maximum bit rate            : 37.0 Mb/s
Width                       : 1 920 pixels
Height                      : 1 080 pixels
Display aspect ratio        : 16:9
Frame rate mode             : Constant
Frame rate                  : 23.976 (24000/1001) FPS
Color space                 : YUV
Chroma subsampling          : 4:2:0
Bit depth                   : 8 bits
Scan type                   : Progressive
Bits/(Pixel*Frame)          : 0.580
Stream size                 : 29.6 GiB (89%)
Title                       : Straight Outta Compton
Language                    : English
Default                     : Yes
Forced                      : No

Audio
ID                          : 2
Format                      : DTS
Format/Info                 : Digital Theater Systems
Format profile              : MA / Core
Codec ID                    : A_DTS
Duration                    : 2 h 26 min
Bit rate mode               : Variable / Constant
Bit rate                    : 3 379 kb/s / 1 509 kb/s
Channel(s)                  : 6 channels
Channel positions           : Front: L C R, Side: L R, LFE
Sampling rate               : 48.0 kHz
Frame rate                  : 93.750 FPS (512 SPF)
Bit depth                   : 24 bits
Compression mode            : Lossless / Lossy
Stream size                 : 3.46 GiB (10%)
Title                       : English
Language                    : English
Default                     : Yes
Forced                      : No

Text #1
ID                          : 3
Format                      : PGS
Muxing mode                 : zlib
Codec ID                    : S_HDMV/PGS
Codec ID/Info               : Picture based subtitle format used on BDs/HD-DVDs
Duration                    : 2 h 26 min
Bit rate                    : 13.2 kb/s
Count of elements           : 5466
Stream size                 : 13.7 MiB (0%)
Title                       : English
Language                    : English
Default                     : No
Forced                      : No

Text #2
ID                          : 4
Format                      : PGS
Muxing mode                 : zlib
Codec ID                    : S_HDMV/PGS
Codec ID/Info               : Picture based subtitle format used on BDs/HD-DVDs
Duration                    : 2 h 26 min
Bit rate                    : 10.5 kb/s
Count of elements           : 4664
Stream size                 : 11.0 MiB (0%)
Title                       : Turkish
Language                    : Turkish
Default                     : Yes
Forced                      : No

[Image: 34004110918_80ec0c2717_b.jpg]

[Image: 47091846844_4ffc1be3e2_b.jpg]

[Image: tdown.png]

For Only Vip Members

Straight Outta Compton (2015) Bluray Remux 1080p AVC DTS-HD MA 5.1 VIP
Reply


Possibly Related Threads…
Thread Author Replies Views Last Post
  Payback Straight Up Directors Cut (2006) Bluray Remux 1080p MPEG DD 5.1 admin 0 420 08-23-2019, 01:59 PM
Last Post: admin

Forum Jump:


Users browsing this thread: 1 Guest(s)

Powered By MyBB
Theme By Audentio Design
Updated By iAndrew | 2018