Thread Rating:
  • 0 Vote(s) - 0 Average
  • 1
  • 2
  • 3
  • 4
  • 5

[-]
Tags
1997 bluray x264 1080p starship 2017 prodji dts collection troopers

  Starship Troopers (1997-2017) Collection BluRay 1080p DTS x264-PRoDJi
#1
Starship Troopers (1997-2017) Collection BluRay 1080p DTS x264-PRoDJi

[Image: starship1.jpg]

[Image: imdb.png]
https://www.imdb.com/title/tt0120201/
https://www.imdb.com/title/tt0367093/
https://www.imdb.com/title/tt0844760/
https://www.imdb.com/title/tt2085930/
https://www.imdb.com/title/tt6977240/

[Image: info.png]
Format : Matroska
Format version : Version 4
File size : 9.85 GiB
Duration : 2 h 9 min
Overall bit rate : 10.9 Mb/s
Encoded date : UTC 2017-10-11 11:37:06
Writing application : mkvmerge v7.2.0 ('On Every Street') 64bit built on Sep 13 2014 15:52:10
Writing library : libebml v1.3.0 + libmatroska v1.4.1

Video
ID : 1
Format : AVC
Format/Info : Advanced Video Codec
Format profile : [email protected]
Format settings : CABAC / 3 Ref Frames
Format settings, CABAC : Yes
Format settings, RefFrames : 3 frames
Codec ID : V_MPEG4/ISO/AVC
Duration : 2 h 9 min
Bit rate : 9 151 kb/s
Width : 1 920 pixels
Height : 1 040 pixels
Display aspect ratio : 1.85:1
Frame rate mode : Constant
Frame rate : 23.976 (24000/1001) FPS
Color space : YUV
Chroma subsampling : 4:2:0
Bit depth : 8 bits
Scan type : Progressive
Bits/(Pixel*Frame) : 0.191
Stream size : 8.08 GiB (82%)
Title : @9151Kbps High Profiles @L4.1
Writing library : x264 core 152 r2851 ba24899
Encoding settings : cabac=1 / ref=4 / deblock=1:-1:-1 / analyse=0x3:0x113 / me=umh / subme=9 / psy=1 / psy_rd=1.00:0.00 / mixed_ref=1 / me_range=24 / chroma_me=1 / trellis=2 / 8x8dct=1 / cqm=2 / deadzone=21,11 / fast_pskip=1 / chroma_qp_offset=-5 / threads=6 / lookahead_threads=1 / sliced_threads=0 / nr=0 / decimate=0 / interlaced=0 / bluray_compat=0 / constrained_intra=0 / bframes=5 / b_pyramid=1 / b_adapt=2 / b_bias=2 / direct=3 / weightb=1 / open_gop=0 / weightp=2 / keyint=230 / keyint_min=22 / scenecut=40 / intra_refresh=0 / rc_lookahead=45 / rc=2pass / mbtree=1 / bitrate=9151 / ratetol=1.0 / qcomp=0.60 / qpmin=10 / qpmax=41 / qpstep=4 / cplxblur=20.0 / qblur=0.5 / ip_ratio=1.30 / aq=1:1.00
Language : English
Default : Yes
Forced : No

Audio #1
ID : 2
Format : DTS
Format/Info : Digital Theater Systems
Codec ID : A_DTS
Duration : 2 h 9 min
Bit rate mode : Constant
Bit rate : 1 509 kb/s
Channel(s) : 6 channels
Channel layout : C L R Ls Rs LFE
Sampling rate : 48.0 kHz
Frame rate : 93.750 FPS (512 SPF)
Bit depth : 24 bits
Compression mode : Lossy
Stream size : 1.37 GiB (14%)
Title : [email protected] 6 chnls
Language : English
Default : Yes
Forced : No

Audio #2
ID : 3
Format : AC-3
Format/Info : Audio Coding 3
Commercial name : Dolby Digital
Codec ID : A_AC3
Duration : 2 h 9 min
Bit rate mode : Constant
Bit rate : 224 kb/s
Channel(s) : 2 channels
Channel layout : L R
Sampling rate : 48.0 kHz
Frame rate : 31.250 FPS (1536 SPF)
Bit depth : 16 bits
Compression mode : Lossy
Stream size : 208 MiB (2%)
Title : [email protected] 2 chnls
Language : Turkish
Service kind : Complete Main
Default : No
Forced : No

Text #1
ID : 4
Format : UTF-8
Codec ID : S_TEXT/UTF8
Codec ID/Info : UTF-8 Plain Text
Language : English
Default : Yes
Forced : No

Text #2
ID : 5
Format : UTF-8
Codec ID : S_TEXT/UTF8
Codec ID/Info : UTF-8 Plain Text
Language : Turkish
Default : No
Forced : No

Menu
00:00:00.000 : en:1. Start
00:02:44.000 : en:2. One Year Earlier
00:09:44.834 : en:3. Jump Ball
00:14:09.139 : en:4. Last Dance
00:22:21.000 : en:5. Federal Network
00:23:42.504 : en:6. Sgt. Zim
00:29:11.000 : en:7. Showers
00:33:07.777 : en:8. No. 2 Chair
00:40:23.587 : en:9. Live Fire Exercise
00:42:42.000 : en:10. Punishment
00:46:40.000 : en:11. Emergency Evasion
00:48:03.630 : en:12. Rico Calls Home
00:52:37.000 : en:13. Federal Network
00:59:32.402 : en:14. A Mistake
01:01:11.000 : en:15. Klendathu Attack
01:04:55.683 : en:16. General Retreat
01:06:59.000 : en:17. Federal Network
01:08:22.000 : en:18. Ticonderoga
01:11:03.000 : en:19. Rasczak'S Roughnecks
01:12:59.333 : en:20. Tango Urilla Clean-Up
01:18:48.306 : en:21. Fun Order
01:23:01.000 : en:22. Flying Bug
01:24:51.000 : en:23. Whiskey Outpost
01:28:52.702 : en:24. Planet P-Ambush
01:42:45.617 : en:25. "Abandon Ship."
01:47:40.787 : en:26. Hostile Situation
01:53:04.402 : en:27. Rescue Party
01:55:43.394 : en:28. Brain Bug
01:59:17.000 : en:29. End Credits
02:09:27.000 : en:30. End

[Image: tdown.png]

For Only Vip Members
Reply


Possibly Related Threads…
Thread Author Replies Views Last Post
  DC Showcase The Spectre (2010) BluRay 1080p DTS x264-PRoDJi admin 2 328 07-24-2019, 06:27 PM
Last Post: admin
  DC Universe Animaton Movie (1993-2008) Boxset Bluray 1080p TR-EN x264 DTS 5.1-PRoDJi admin 0 88 07-20-2019, 05:30 PM
Last Post: admin
  Papillon (2017) Bluray 1080p TR-EN AC3 x264-LoRD admin 0 72 07-14-2019, 06:07 PM
Last Post: admin
  The House (1985-1992) Collection BluRay 1080p DTS x264-PRoDJi admin 3 452 05-13-2019, 02:39 PM
Last Post: Brooks
  Scream Movie Collection (1996-2011) Bluray 1080p TR-EN x264-NoGroup admin 0 204 05-12-2019, 08:00 PM
Last Post: admin

Forum Jump:


Users browsing this thread: 1 Guest(s)

Powered By MyBB
Theme By Audentio Design
Updated By iAndrew | 2018