Thread Rating:
  • 0 Vote(s) - 0 Average
  • 1
  • 2
  • 3
  • 4
  • 5

[-]
Tags
dd bluray 1080p the star en 1 vc remux clone 5 tr 2008 wars

 
  Star Wars The Clone Wars (2008) Bluray Remux 1080p TR-EN VC-1 DD 5.1
#1
Star Wars The Clone Wars (2008) Bluray Remux 1080p TR-EN VC-1 DD 5.1

[Image: tt0458290.jpg]

[Image: imdb.png]
https://www.imdb.com/title/tt0458290/

[Image: info.png]
Star Wars The Clone Wars 2008 TR EN.mkv
Format                      : Matroska
Format version              : Version 4 / Version 2
File size                   : 12.5 GiB
Duration                    : 1 h 38 min
Overall bit rate            : 18.2 Mb/s
Encoded date                : UTC 2013-07-13 20:43:11
Writing application         : mkvmerge v6.2.0 ('Promised Land') built on Apr 28 2013 12:22:01
Writing library             : libebml v1.3.0 + libmatroska v1.4.0

Video
ID                          : 1
Format                      : VC-1
Format profile              : [email protected]
Codec ID                    : V_MS/VFW/FOURCC / WVC1
Codec ID/Hint               : Microsoft
Duration                    : 1 h 38 min
Bit rate                    : 16.6 Mb/s
Width                       : 1 920 pixels
Height                      : 1 080 pixels
Display aspect ratio        : 16:9
Frame rate mode             : Constant
Frame rate                  : 23.976 (24000/1001) FPS
Color space                 : YUV
Chroma subsampling          : 4:2:0
Bit depth                   : 8 bits
Scan type                   : Progressive
Compression mode            : Lossy
Bits/(Pixel*Frame)          : 0.334
Stream size                 : 11.4 GiB (91%)
Title                       : Star Wars The Clone Wars
Language                    : English
Default                     : Yes
Forced                      : No

Audio #1
ID                          : 2
Format                      : AC-3
Format/Info                 : Audio Coding 3
Format settings, Endianness : Big
Codec ID                    : A_AC3
Duration                    : 1 h 38 min
Bit rate mode               : Constant
Bit rate                    : 640 kb/s
Channel(s)                  : 6 channels
Channel positions           : Front: L C R, Side: L R, LFE
Sampling rate               : 48.0 kHz
Frame rate                  : 31.250 FPS (1536 spf)
Bit depth                   : 16 bits
Compression mode            : Lossy
Stream size                 : 451 MiB (4%)
Title                       : English
Language                    : English
Service kind                : Complete Main
Default                     : Yes
Forced                      : No

Audio #2
ID                          : 3
Format                      : AC-3
Format/Info                 : Audio Coding 3
Format settings, Endianness : Big
Codec ID                    : A_AC3
Duration                    : 1 h 38 min
Bit rate mode               : Constant
Bit rate                    : 640 kb/s
Channel(s)                  : 6 channels
Channel positions           : Front: L C R, Side: L R, LFE
Sampling rate               : 48.0 kHz
Frame rate                  : 31.250 FPS (1536 spf)
Bit depth                   : 16 bits
Compression mode            : Lossy
Stream size                 : 451 MiB (4%)
Title                       : Turkish
Language                    : Turkish
Service kind                : Complete Main
Default                     : No
Forced                      : No

Text #1
ID                          : 4
Format                      : PGS
Muxing mode                 : zlib
Codec ID                    : S_HDMV/PGS
Codec ID/Info               : Picture based subtitle format used on BDs/HD-DVDs
Title                       : English
Language                    : English
Default                     : No
Forced                      : No

Text #2
ID                          : 5
Format                      : PGS
Muxing mode                 : zlib
Codec ID                    : S_HDMV/PGS
Codec ID/Info               : Picture based subtitle format used on BDs/HD-DVDs
Title                       : Turkish
Language                    : Turkish
Default                     : Yes
Forced                      : No

[Image: vlcsnap-error059-jpg-99203a40340be0bbdfc...8ac87d.jpg]

[Image: vlcsnap-error191-jpg-34f98c8d1dab3091353...6e5d2a.jpg]

[Image: tdown.png]

For Only Vip Members

Star Wars The Clone Wars (2008) Bluray Remux 1080p TR-EN VC-1 DD 5.1 VIP
Reply


Possibly Related Threads…
Thread Author Replies Views Last Post
  Flaming Star 1960 1080p Blu-ray Remux AVC DTS-HD MA 5.1 - KRaLiMaRKo KAiJu 0 15 05-10-2022, 01:22 PM
Last Post: KAiJu
  Gang Wars 1976 1080p BluRay REMUX AVC FLAC 2 0-EPSiLON KAiJu 0 35 04-13-2022, 06:30 AM
Last Post: KAiJu
  Barb and Star Go to Vista Del Mar 2021 1080p Remux AVC DTS-HD MA 5.1-playBD KAiJu 0 60 03-16-2022, 09:56 AM
Last Post: KAiJu
  My Lucky Star 2003 1080p Blu-ray Remux AVC LPCM 2 0-HDT KAiJu 0 72 03-14-2022, 03:30 PM
Last Post: KAiJu
  Star of David Beautiful Girl Hunter 1979 1080p Blu-ray Remux AVC DTS-HD MA 2 0-HDT KAiJu 0 68 03-14-2022, 03:27 PM
Last Post: KAiJu

Forum Jump:


Users browsing this thread: 1 Guest(s)

Powered By MyBB
RSS RSS Syndication
Updated By iAndrew | 2022