Thread Rating:
  • 0 Vote(s) - 0 Average
  • 1
  • 2
  • 3
  • 4
  • 5

[-]
Tags
bluray procedure avc 1080p standard operating 1 remux 5 truehd 2008

  Standard Operating Procedure (2008) Bluray Remux 1080p AVC TrueHD 5.1
#1
Standard Operating Procedure (2008) Bluray Remux 1080p AVC TrueHD 5.1

[Image: tt0896866.jpg]

[Image: imdb.png]
https://www.imdb.com/title/tt0896866/

[Image: info.png]
Standard Operating Procedure 2008 EN.mkv
Format                      : Matroska
Format version              : Version 4 / Version 2
File size                   : 23.3 GiB
Duration                    : 1 h 55 min
Overall bit rate mode       : Variable
Overall bit rate            : 28.8 Mb/s
Movie name                  : Standard Operating Procedure
Encoded date                : UTC 2016-11-28 17:34:42
Writing application         : mkvmerge v9.5.0 ('Quiet Fire') 64bit
Writing library             : libebml v1.3.4 + libmatroska v1.4.5

Video
ID                          : 1
Format                      : AVC
Format/Info                 : Advanced Video Codec
Format profile              : [email protected]
Format settings             : CABAC / 4 Ref Frames
Format settings, CABAC      : Yes
Format settings, ReFrames   : 4 frames
Codec ID                    : V_MPEG4/ISO/AVC
Duration                    : 1 h 55 min
Bit rate mode               : Variable
Bit rate                    : 25.2 Mb/s
Maximum bit rate            : 30.5 Mb/s
Width                       : 1 920 pixels
Height                      : 1 080 pixels
Display aspect ratio        : 16:9
Frame rate mode             : Constant
Frame rate                  : 23.976 (24000/1001) FPS
Color space                 : YUV
Chroma subsampling          : 4:2:0
Bit depth                   : 8 bits
Scan type                   : Progressive
Bits/(Pixel*Frame)          : 0.507
Stream size                 : 20.4 GiB (87%)
Title                       : Standard Operating Procedure
Language                    : English
Default                     : Yes
Forced                      : No
Color range                 : Limited
Color primaries             : BT.709
Transfer characteristics    : BT.709
Matrix coefficients         : BT.709

Audio #1
ID                          : 2
Format                      : TrueHD
Codec ID                    : A_TRUEHD
Duration                    : 1 h 55 min
Bit rate mode               : Variable
Bit rate                    : 2 909 kb/s
Maximum bit rate            : 4 737 kb/s
Channel(s)                  : 6 channels
Channel positions           : Front: L C R, Side: L R, LFE
Sampling rate               : 48.0 kHz
Frame rate                  : 1 200.000 FPS (40 SPF)
Compression mode            : Lossless
Stream size                 : 2.35 GiB (10%)
Title                       : English THD
Language                    : English
Default                     : Yes
Forced                      : No

Audio #2
ID                          : 3
Format                      : AC-3
Format/Info                 : Audio Coding 3
Codec ID                    : A_AC3
Duration                    : 1 h 55 min
Bit rate mode               : Constant
Bit rate                    : 640 kb/s
Channel(s)                  : 6 channels
Channel positions           : Front: L C R, Side: L R, LFE
Sampling rate               : 48.0 kHz
Frame rate                  : 31.250 FPS (1536 SPF)
Bit depth                   : 16 bits
Compression mode            : Lossy
Stream size                 : 530 MiB (2%)
Title                       : English AC3
Language                    : English
Service kind                : Complete Main
Default                     : No
Forced                      : No

Text #1
ID                          : 4
Format                      : PGS
Muxing mode                 : zlib
Codec ID                    : S_HDMV/PGS
Codec ID/Info               : Picture based subtitle format used on BDs/HD-DVDs
Duration                    : 1 h 48 min
Bit rate                    : 15.0 kb/s
Count of elements           : 2590
Stream size                 : 11.7 MiB (0%)
Title                       : English
Language                    : English
Default                     : No
Forced                      : No

Text #2
ID                          : 5
Format                      : PGS
Muxing mode                 : zlib
Codec ID                    : S_HDMV/PGS
Codec ID/Info               : Picture based subtitle format used on BDs/HD-DVDs
Duration                    : 1 h 48 min
Bit rate                    : 14.2 kb/s
Count of elements           : 2697
Stream size                 : 11.1 MiB (0%)
Title                       : Turkish
Language                    : Turkish
Default                     : Yes
Forced                      : No

[Image: 47091782704_518bd94b87_b.jpg]

[Image: 34004064458_8bd42ff280_b.jpg]

[Image: tdown.png]

For Only Vip Members

Standard Operating Procedure (2008) Bluray Remux 1080p AVC TrueHD 5.1 VIP
Reply


Forum Jump:


Users browsing this thread: 1 Guest(s)

Powered By MyBB
Theme By Audentio Design
Updated By iAndrew | 2018