Thread Rating:
  • 0 Vote(s) - 0 Average
  • 1
  • 2
  • 3
  • 4
  • 5

[-]
Tags
bluray spy avc 1080p hd ma 1 2011 remux 2001 kids dts collection 5

  Spy Kids Collection (2001-2011) Bluray Remux 1080p AVC DTS-HD MA 5.1
#1
Spy Kids Collection (2001-2011) Bluray Remux 1080p AVC DTS-HD MA 5.1

https://www.imdb.com/title/tt0287717/
https://www.imdb.com/title/tt0338459/
https://www.imdb.com/title/tt1517489/

[Image: info.png]
Spy Kids 2001 EN.mkv
Format                      : Matroska
Format version              : Version 4 / Version 2
File size                   : 16.8 GiB
Duration                    : 1 h 30 min
Overall bit rate mode       : Variable
Overall bit rate            : 26.4 Mb/s
Movie name                  : Spy Kids
Encoded date                : UTC 2017-11-26 13:32:58
Writing application         : mkvmerge v18.0.0 ('Apricity') 64-bit
Writing library             : libebml v1.3.5 + libmatroska v1.4.8

Video
ID                          : 1
Format                      : AVC
Format/Info                 : Advanced Video Codec
Format profile              : [email protected]
Format settings, CABAC      : Yes
Format settings, ReFrames   : 4 frames
Codec ID                    : V_MPEG4/ISO/AVC
Duration                    : 1 h 30 min
Bit rate mode               : Variable
Bit rate                    : 22.2 Mb/s
Maximum bit rate            : 39.0 Mb/s
Width                       : 1 920 pixels
Height                      : 1 080 pixels
Display aspect ratio        : 16:9
Frame rate mode             : Constant
Frame rate                  : 23.976 (24000/1001) FPS
Color space                 : YUV
Chroma subsampling          : 4:2:0
Bit depth                   : 8 bits
Scan type                   : Progressive
Bits/(Pixel*Frame)          : 0.446
Stream size                 : 14.1 GiB (84%)
Title                       : Spy Kids
Language                    : English
Default                     : Yes
Forced                      : No
Color range                 : Limited
Color primaries             : BT.709
Transfer characteristics    : BT.709
Matrix coefficients         : BT.709

Audio
ID                          : 2
Format                      : DTS
Format/Info                 : Digital Theater Systems
Format profile              : MA / Core
Mode                        : 16
Format settings, Endianness : Big
Codec ID                    : A_DTS
Duration                    : 1 h 30 min
Bit rate mode               : Variable / Constant
Bit rate                    : 4 223 kb/s / 1 509 kb/s
Channel(s)                  : 6 channels
Channel positions           : Front: L C R, Side: L R, LFE
Sampling rate               : 48.0 kHz
Frame rate                  : 93.750 FPS (512 spf)
Bit depth                   : 24 bits
Compression mode            : Lossless / Lossy
Stream size                 : 2.68 GiB (16%)
Title                       : English
Language                    : English
Default                     : Yes
Forced                      : No

Text #1
ID                          : 3
Format                      : PGS
Muxing mode                 : zlib
Codec ID                    : S_HDMV/PGS
Codec ID/Info               : Picture based subtitle format used on BDs/HD-DVDs
Duration                    : 1 h 23 min
Bit rate                    : 42.7 kb/s
Count of elements           : 2496
Stream size                 : 25.6 MiB (0%)
Title                       : English
Language                    : English
Default                     : No
Forced                      : No

Text #2
ID                          : 4
Format                      : PGS
Muxing mode                 : zlib
Codec ID                    : S_HDMV/PGS
Codec ID/Info               : Picture based subtitle format used on BDs/HD-DVDs
Duration                    : 1 h 23 min
Bit rate                    : 29.9 kb/s
Count of elements           : 2222
Stream size                 : 17.9 MiB (0%)
Title                       : Turkish
Language                    : Turkish
Default                     : Yes
Forced                      : No

[Image: 32895925167_004d2e642c_b.jpg]

[Image: 32895925407_a6414c71ab_b.jpg]

[Image: tdown.png]

For Only Vip Members

Spy Kids Collection (2001-2011) Bluray Remux 1080p AVC DTS-HD MA 5.1 VIP
Reply


Possibly Related Threads…
Thread Author Replies Views Last Post
  The Others 2001 1080p Remux AVC DTS-HD MA 5.1-playBD KAiJu 0 84 11-30-2020, 01:35 PM
Last Post: KAiJu
  Cluny Brown 1946 Criterion Collection Repack 1080p Blu-ray Remux AVC FLAC 1.0 - KRaLi KAiJu 0 107 11-19-2020, 11:27 AM
Last Post: KAiJu
  Attila 2001 BluRay Remux 1080p AVC DTS-HD MA 5.1-HiFi KAiJu 0 93 10-20-2020, 07:28 AM
Last Post: KAiJu
  The Pledge 2001 1080p Blu-ray Remux AVC FLAC 2.0 - KRaLiMaRKo KAiJu 0 128 10-15-2020, 07:23 AM
Last Post: KAiJu
  Rush Hour 1-2-3 (1998-2001-2007) Bluray REMUX 1080p TR-EN DD 5.1 x264-TURG admin 0 792 02-05-2020, 11:18 AM
Last Post: admin

Forum Jump:


Users browsing this thread: 1 Guest(s)

Powered By MyBB
Theme By Audentio Design
Updated By iAndrew | 2018