Thread Rating:
  • 0 Vote(s) - 0 Average
  • 1
  • 2
  • 3
  • 4
  • 5

[-]
Tags
1984 bluray avc 1080p 1 splash remux dts 5

  Splash (1984) Bluray Remux 1080p AVC DTS 5.1
#1
Splash (1984) Bluray Remux 1080p AVC DTS 5.1

[Image: tt0088161.jpg]

[Image: imdb.png]
https://www.imdb.com/title/tt0088161/

[Image: info.png]
Splash 1984 EN.mkv
Format                      : Matroska
Format version              : Version 4 / Version 2
File size                   : 22.6 GiB
Duration                    : 1 h 49 min
Overall bit rate mode       : Variable
Overall bit rate            : 29.5 Mb/s
Movie name                  : Splash
Encoded date                : UTC 2018-01-31 18:14:37
Writing application         : mkvmerge v20.0.0 ('I Am The Sun') 64-bit
Writing library             : libebml v1.3.5 + libmatroska v1.4.8

Video
ID                          : 1
Format                      : AVC
Format/Info                 : Advanced Video Codec
Format profile              : [email protected]
Format settings             : CABAC / 4 Ref Frames
Format settings, CABAC      : Yes
Format settings, ReFrames   : 4 frames
Codec ID                    : V_MPEG4/ISO/AVC
Duration                    : 1 h 49 min
Bit rate mode               : Variable
Bit rate                    : 25.9 Mb/s
Maximum bit rate            : 34.0 Mb/s
Width                       : 1 920 pixels
Height                      : 1 080 pixels
Display aspect ratio        : 16:9
Frame rate mode             : Constant
Frame rate                  : 23.976 (24000/1001) FPS
Color space                 : YUV
Chroma subsampling          : 4:2:0
Bit depth                   : 8 bits
Scan type                   : Progressive
Bits/(Pixel*Frame)          : 0.521
Stream size                 : 19.9 GiB (88%)
Title                       : Splash
Language                    : English
Default                     : Yes
Forced                      : No

Audio
ID                          : 2
Format                      : DTS
Format/Info                 : Digital Theater Systems
Format profile              : MA / Core
Codec ID                    : A_DTS
Duration                    : 1 h 49 min
Bit rate mode               : Variable / Constant
Bit rate                    : 3 549 kb/s / 1 509 kb/s
Channel(s)                  : 6 channels
Channel positions           : Front: L C R, Side: L R, LFE
Sampling rate               : 48.0 kHz
Frame rate                  : 93.750 FPS (512 SPF)
Bit depth                   : 24 bits
Compression mode            : Lossless / Lossy
Stream size                 : 2.72 GiB (12%)
Title                       : English
Language                    : English
Default                     : Yes
Forced                      : No

Text #1
ID                          : 3
Format                      : PGS
Muxing mode                 : zlib
Codec ID                    : S_HDMV/PGS
Codec ID/Info               : Picture based subtitle format used on BDs/HD-DVDs
Duration                    : 1 h 48 min
Bit rate                    : 33.5 kb/s
Count of elements           : 2848
Stream size                 : 26.1 MiB (0%)
Title                       : English SDH
Language                    : English
Default                     : No
Forced                      : No

Text #2
ID                          : 4
Format                      : PGS
Muxing mode                 : zlib
Codec ID                    : S_HDMV/PGS
Codec ID/Info               : Picture based subtitle format used on BDs/HD-DVDs
Duration                    : 1 h 41 min
Bit rate                    : 28.6 kb/s
Count of elements           : 2412
Stream size                 : 20.8 MiB (0%)
Title                       : Turkish
Language                    : Turkish
Default                     : Yes
Forced                      : No

[Image: 40897695593_7d1cfa0837_b.jpg]

[Image: 46948061655_5e6fb4cbb8_b.jpg]

[Image: tdown.png]

For Only Vip Members

Splash (1984) Bluray Remux 1080p AVC DTS 5.1 VIP
Reply


Possibly Related Threads…
Thread Author Replies Views Last Post
  Paris Texas (1984) Bluray REMUX 1080p TR-EN AVC DTS-HD MA 5.1-BdC admin 0 817 01-08-2020, 03:52 PM
Last Post: admin
  Gremlins 1-2 (1984-1990) Bluray Remux 1080p VC-1 TrueHD 5.1 admin 0 757 08-21-2019, 01:27 PM
Last Post: admin
  Amadeus (1984) Bluray Remux 1080p VC-1 TrueHD 5.1 admin 0 803 07-09-2019, 11:56 AM
Last Post: admin
  Conan the Destroyer (1984) Bluray Remux 1080p AVC DTS-HD MA 5.1 admin 0 790 07-08-2019, 10:12 AM
Last Post: admin
  The Muppets Take Manhattan (1984) Bluray Remux 1080p AVC DTS-HD MA 5.1 admin 0 874 06-17-2019, 05:36 PM
Last Post: admin

Forum Jump:


Users browsing this thread: 2 Guest(s)

Powered By MyBB
Theme By Audentio Design
Updated By iAndrew | 2018