Thread Rating:
  • 0 Vote(s) - 0 Average
  • 1
  • 2
  • 3
  • 4
  • 5

[-]
Tags
bluray 1995 avc 1080p 2007 movie hd ma 1 remux species dts collection 5

  Species Movie Collection (1995-2007) Bluray Remux 1080p AVC DTS-HD MA 5.1
#1
Species Movie Collection (1995-2007) Bluray Remux 1080p AVC DTS-HD MA 5.1

[Image: tt0114508.jpg]

[Image: imdb.png]
https://www.imdb.com/title/tt0114508/
https://www.imdb.com/title/tt0120841/
https://www.imdb.com/title/tt0410650/
https://www.imdb.com/title/tt0844894/

[Image: info.png]
Species 1995 EN.mkv
Format                      : Matroska
Format version              : Version 4 / Version 2
File size                   : 27.3 GiB
Duration                    : 1 h 48 min
Overall bit rate            : 36.1 Mb/s
Movie name                  : Species
Encoded date                : UTC 2017-08-16 00:29:49
Writing application         : mkvmerge v14.0.0 ('Flow') 64bit
Writing library             : libebml v1.3.4 + libmatroska v1.4.5

Video
ID                          : 1
Format                      : AVC
Format/Info                 : Advanced Video Codec
Format profile              : [email protected]
Format settings             : CABAC / 4 Ref Frames
Format settings, CABAC      : Yes
Format settings, ReFrames   : 4 frames
Codec ID                    : V_MPEG4/ISO/AVC
Duration                    : 1 h 48 min
Bit rate mode               : Constant
Bit rate                    : 35.0 Mb/s
Width                       : 1 920 pixels
Height                      : 1 080 pixels
Display aspect ratio        : 16:9
Frame rate mode             : Constant
Frame rate                  : 23.976 (24000/1001) FPS
Color space                 : YUV
Chroma subsampling          : 4:2:0
Bit depth                   : 8 bits
Scan type                   : Progressive
Bits/(Pixel*Frame)          : 0.704
Stream size                 : 25.7 GiB (94%)
Title                       : Species
Language                    : English
Default                     : Yes
Forced                      : No

Audio
ID                          : 2
Format                      : DTS
Format/Info                 : Digital Theater Systems
Format profile              : MA / Core
Codec ID                    : A_DTS
Duration                    : 1 h 48 min
Bit rate mode               : Variable / Constant
Bit rate                    : 2 048 kb/s / 1 509 kb/s
Channel(s)                  : 6 channels
Channel positions           : Front: L C R, Side: L R, LFE
Sampling rate               : 48.0 kHz
Frame rate                  : 93.750 FPS (512 SPF)
Bit depth                   : 24 bits
Compression mode            : Lossless / Lossy
Stream size                 : 1.53 GiB (6%)
Title                       : English
Language                    : English
Default                     : Yes
Forced                      : No

Text #1
ID                          : 3
Format                      : PGS
Muxing mode                 : zlib
Codec ID                    : S_HDMV/PGS
Codec ID/Info               : Picture based subtitle format used on BDs/HD-DVDs
Duration                    : 1 h 43 min
Bit rate                    : 56.4 kb/s
Count of elements           : 2678
Stream size                 : 41.6 MiB (0%)
Title                       : English
Language                    : English
Default                     : No
Forced                      : No

Text #2
ID                          : 4
Format                      : PGS
Muxing mode                 : zlib
Codec ID                    : S_HDMV/PGS
Codec ID/Info               : Picture based subtitle format used on BDs/HD-DVDs
Duration                    : 1 h 39 min
Bit rate                    : 16.8 kb/s
Count of elements           : 1370
Stream size                 : 12.0 MiB (0%)
Title                       : Turkish
Language                    : Turkish
Default                     : Yes
Forced                      : No

[Image: 47851035431_b93e073f8f_b.jpg]

[Image: 40884251223_8eef2e3503_b.jpg]

[Image: tdown.png]

For Only Vip Members

Species Movie Collection (1995-2007) Bluray Remux 1080p AVC DTS-HD MA 5.1 VIP
Reply


Possibly Related Threads…
Thread Author Replies Views Last Post
  The Kingdom 2007 1080p Blu-ray Remux VC-1 DTS-HD MA 5.1 - KRaLiMaRKo KAiJu 0 107 11-19-2020, 11:50 AM
Last Post: KAiJu
  Cluny Brown 1946 Criterion Collection Repack 1080p Blu-ray Remux AVC FLAC 1.0 - KRaLi KAiJu 0 89 11-19-2020, 11:27 AM
Last Post: KAiJu
  The Hills Have Eyes I-II (2006-2007) Bluray REMUX 1080p AVC DTS-HD MA 5.1-HUSe AbrA 1 183 10-11-2020, 06:24 PM
Last Post: pastifox
  The Hitcher (2007) Bluray REMUX 1080p AVC DTS-HD MA 5.1-HUSe AbrA 0 115 10-05-2020, 01:50 PM
Last Post: AbrA
  Blades Of Glory 2007 Bluray REMUX 1080p AVC DD 5.1-HUSe AbrA 0 158 09-22-2020, 04:01 PM
Last Post: AbrA

Forum Jump:


Users browsing this thread: 1 Guest(s)

Powered By MyBB
Theme By Audentio Design
Updated By iAndrew | 2018