Thread Rating:
  • 0 Vote(s) - 0 Average
  • 1
  • 2
  • 3
  • 4
  • 5

[-]
Tags
sniper bluray kill avc 1080p 2017 ultimate hd ma 1 remux dts 5

 
  Sniper Ultimate Kill (2017) Bluray Remux 1080p AVC DTS-HD MA 5.1
#1
Sniper Ultimate Kill (2017) Bluray Remux 1080p AVC DTS-HD MA 5.1

[Image: tt6349302.jpg]

[Image: imdb.png]
https://www.imdb.com/title/tt6349302/

[Image: info.png]
Sniper Ultimate Kill 2017 EN.mkv
Format                      : Matroska
Format version              : Version 4 / Version 2
File size                   : 17.7 GiB
Duration                    : 1 h 33 min
Overall bit rate mode       : Variable
Overall bit rate            : 27.1 Mb/s
Movie name                  : Sniper: Ultimate Kill
Encoded date                : UTC 2017-10-14 18:52:23
Writing application         : mkvmerge v17.0.0 ('Be Ur Friend') 64-bit
Writing library             : libebml v1.3.5 + libmatroska v1.4.8

Video
ID                          : 1
Format                      : AVC
Format/Info                 : Advanced Video Codec
Format profile              : [email protected]
Format settings, CABAC      : Yes
Format settings, ReFrames   : 2 frames
Codec ID                    : V_MPEG4/ISO/AVC
Duration                    : 1 h 33 min
Bit rate mode               : Variable
Bit rate                    : 24.9 Mb/s
Width                       : 1 920 pixels
Height                      : 1 080 pixels
Display aspect ratio        : 16:9
Frame rate mode             : Constant
Frame rate                  : 23.976 (24000/1001) FPS
Color space                 : YUV
Chroma subsampling          : 4:2:0
Bit depth                   : 8 bits
Scan type                   : Progressive
Bits/(Pixel*Frame)          : 0.501
Stream size                 : 16.2 GiB (92%)
Title                       : Sniper: Ultimate Kill
Language                    : English
Default                     : Yes
Forced                      : No

Audio
ID                          : 2
Format                      : DTS
Format/Info                 : Digital Theater Systems
Format profile              : MA / Core
Mode                        : 16
Format settings, Endianness : Big
Codec ID                    : A_DTS
Duration                    : 1 h 33 min
Bit rate mode               : Variable / Constant
Bit rate                    : 2 228 kb/s / 1 509 kb/s
Channel(s)                  : 6 channels
Channel positions           : Front: L C R, Side: L R, LFE
Sampling rate               : 48.0 kHz
Frame rate                  : 93.750 FPS (512 spf)
Bit depth                   : 16 bits
Compression mode            : Lossless / Lossy
Stream size                 : 1.45 GiB (8%)
Title                       : English
Language                    : English
Default                     : Yes
Forced                      : No

Text #1
ID                          : 3
Format                      : PGS
Muxing mode                 : zlib
Codec ID                    : S_HDMV/PGS
Codec ID/Info               : Picture based subtitle format used on BDs/HD-DVDs
Duration                    : 1 h 29 min
Bit rate                    : 30.2 kb/s
Count of elements           : 2044
Stream size                 : 19.3 MiB (0%)
Title                       : English
Language                    : English
Default                     : No
Forced                      : No

Text #2
ID                          : 4
Format                      : PGS
Muxing mode                 : zlib
Codec ID                    : S_HDMV/PGS
Codec ID/Info               : Picture based subtitle format used on BDs/HD-DVDs
Duration                    : 1 h 28 min
Bit rate                    : 27.0 kb/s
Count of elements           : 1838
Stream size                 : 17.1 MiB (0%)
Title                       : Turkish
Language                    : Turkish
Default                     : Yes
Forced                      : No

[Image: vlcsnap-error613-jpg-105ba0676acd7a6a00f...9f9a81.jpg]

[Image: vlcsnap-error978-jpg-7ad38f64116103cd5aa...bbb0e5.jpg]

[Image: tdown.png]

For Only Vip Members

Sniper Ultimate Kill (2017) Bluray Remux 1080p AVC DTS-HD MA 5.1 VIP
Reply


Possibly Related Threads…
Thread Author Replies Views Last Post
  Sniper Tiger Unit 2020 1080p Blu-ray Remux AVC DTS-HD MA 5.1-HDT KAiJu 0 55 10-30-2021, 10:18 PM
Last Post: KAiJu
  Looks That Kill 2020 1080p Blu-ray Remux AVC DTS-HD MA 5.1-HDT KAiJu 0 29 10-28-2021, 08:46 PM
Last Post: KAiJu
  The Sniper 1952 1080p Blu-ray Remux AVC FLAC 1.0 - KRaLiMaRKo KAiJu 0 51 09-02-2021, 06:37 PM
Last Post: KAiJu
  The Sniper 2009 Bluray REMUX 1080p AVC DTS-HD MA 5.1-HUS AbrA 0 277 03-06-2021, 08:18 PM
Last Post: AbrA
  68 Kill 2017 1080p Remux AVC DTS-HD MA 5.1-playBD KAiJu 0 313 01-01-2021, 12:48 PM
Last Post: KAiJu

Forum Jump:


Users browsing this thread: 1 Guest(s)

Powered By MyBB
RSS RSS Syndication
Updated By iAndrew | 2021