Thread Rating:
  • 0 Vote(s) - 0 Average
  • 1
  • 2
  • 3
  • 4
  • 5

[-]
Tags
bluray saints avc 1080p en hd ma and 2 remux 2010 dts tr sinners

  Sinners and Saints (2010) Bluray Remux 1080p TR-EN AVC DTS-HD MA 2.0
#1
Sinners and Saints (2010) Bluray Remux 1080p TR-EN AVC DTS-HD MA 2.0

[Image: tt1130969.jpg]

[Image: imdb.png]
https://www.imdb.com/title/tt1130969/

[Image: info.png]
Sinners and Saints 2010 TR EN.mkv
Format                      : Matroska
Format version              : Version 4 / Version 2
File size                   : 17.4 GiB
Duration                    : 1 h 43 min
Overall bit rate mode       : Variable
Overall bit rate            : 24.0 Mb/s
Movie name                  : Sinners and Saints
Encoded date                : UTC 2017-11-04 22:39:05
Writing application         : mkvmerge v16.0.0 ('Protest') 64-bit
Writing library             : libebml v1.3.5 + libmatroska v1.4.8

Video
ID                          : 1
Format                      : AVC
Format/Info                 : Advanced Video Codec
Format profile              : [email protected]
Format settings, CABAC      : Yes
Format settings, ReFrames   : 4 frames
Format settings, GOP        : M=3, N=24
Codec ID                    : V_MPEG4/ISO/AVC
Duration                    : 1 h 43 min
Bit rate mode               : Variable
Bit rate                    : 20.0 Mb/s
Maximum bit rate            : 35.0 Mb/s
Width                       : 1 920 pixels
Height                      : 1 080 pixels
Display aspect ratio        : 16:9
Frame rate mode             : Constant
Frame rate                  : 23.976 (24000/1001) FPS
Standard                    : NTSC
Color space                 : YUV
Chroma subsampling          : 4:2:0
Bit depth                   : 8 bits
Scan type                   : Progressive
Bits/(Pixel*Frame)          : 0.402
Stream size                 : 14.5 GiB (83%)
Title                       : Sinners and Saints
Language                    : English
Default                     : Yes
Forced                      : No
Color range                 : Limited
Color primaries             : BT.709
Transfer characteristics    : BT.709
Matrix coefficients         : BT.709

Audio #1
ID                          : 2
Format                      : DTS
Format/Info                 : Digital Theater Systems
Format profile              : MA / Core
Mode                        : 16
Format settings, Endianness : Big
Codec ID                    : A_DTS
Duration                    : 1 h 43 min
Bit rate mode               : Variable / Constant
Bit rate                    : 1 611 kb/s / 1 509 kb/s
Channel(s)                  : 2 channels
Channel positions           : Front: L R
Sampling rate               : 48.0 kHz
Frame rate                  : 93.750 FPS (512 spf)
Bit depth                   : 16 bits
Compression mode            : Lossless / Lossy
Stream size                 : 1.17 GiB (7%)
Title                       : Turkish
Language                    : Turkish
Default                     : No
Forced                      : No

Audio #2
ID                          : 3
Format                      : DTS
Format/Info                 : Digital Theater Systems
Format profile              : MA / Core
Mode                        : 16
Format settings, Endianness : Big
Codec ID                    : A_DTS
Duration                    : 1 h 43 min
Bit rate mode               : Variable / Constant
Bit rate                    : 2 381 kb/s / 1 509 kb/s
Channel(s)                  : 6 channels
Channel positions           : Front: L C R, Side: L R, LFE
Sampling rate               : 48.0 kHz
Frame rate                  : 93.750 FPS (512 spf)
Bit depth                   : 16 bits
Compression mode            : Lossless / Lossy
Stream size                 : 1.73 GiB (10%)
Title                       : English
Language                    : English
Default                     : Yes
Forced                      : No

Text
ID                          : 4
Format                      : PGS
Muxing mode                 : zlib
Codec ID                    : S_HDMV/PGS
Codec ID/Info               : Picture based subtitle format used on BDs/HD-DVDs
Duration                    : 1 h 38 min
Bit rate                    : 31.7 kb/s
Count of elements           : 2160
Stream size                 : 22.3 MiB (0%)
Title                       : Turkish
Language                    : Turkish
Default                     : Yes
Forced                      : No

[Image: vlcsnap-error194-jpg-9d91873a81fb3b29db4...1716cc.jpg]

[Image: vlcsnap-error549-jpg-190ae19fd8246f426d7...6cce04.jpg]

[Image: tdown.png]

For Only Vip Members

Sinners and Saints (2010) Bluray Remux 1080p TR-EN AVC DTS-HD MA 2.0 VIP
Reply


Possibly Related Threads…
Thread Author Replies Views Last Post
  The Boondock Saints 1-2 (1999-2009) Bluray Remux 1080p AVC DTS-HD MA 5.1 admin 1 1,180 08-22-2019, 09:20 PM
Last Post: spyet
  Never Let Me Go (2010) Bluray Remux 1080p AVC DTS-HD MA 5.1 admin 0 959 06-03-2019, 02:09 PM
Last Post: admin
  All Saints (2017) Bluray Remux 1080p AVC DTS-HD MA 5.1 admin 0 802 05-13-2019, 12:23 PM
Last Post: admin

Forum Jump:


Users browsing this thread: 1 Guest(s)

Powered By MyBB
Theme By Audentio Design
Updated By iAndrew | 2018