Thread Rating:
  • 0 Vote(s) - 0 Average
  • 1
  • 2
  • 3
  • 4
  • 5

[-]
Tags
1985 bluray avc 1080p silver bullet hd ma 2 remux dts

  Silver Bullet (1985) Bluray Remux 1080p AVC DTs-HD MA 2.0
#1
Silver Bullet (1985) Bluray Remux 1080p AVC DTs-HD MA 2.0

[Image: tt0090021.jpg]

[Image: imdb.png]
https://www.imdb.com/title/tt0090021/

[Image: info.png]
Silver Bullet 1985 EN.mkv
Format                      : Matroska
Format version              : Version 4 / Version 2
File size                   : 13.2 GiB
Duration                    : 1 h 34 min
Overall bit rate mode       : Variable
Overall bit rate            : 20.0 Mb/s
Movie name                  : Silver Bullet
Encoded date                : UTC 2018-01-27 18:23:11
Writing application         : mkvmerge v20.0.0 ('I Am The Sun') 64-bit
Writing library             : libebml v1.3.5 + libmatroska v1.4.8

Video
ID                          : 1
Format                      : AVC
Format/Info                 : Advanced Video Codec
Format profile              : [email protected]
Format settings             : CABAC / 3 Ref Frames
Format settings, CABAC      : Yes
Format settings, ReFrames   : 3 frames
Codec ID                    : V_MPEG4/ISO/AVC
Duration                    : 1 h 34 min
Bit rate mode               : Variable
Bit rate                    : 18.0 Mb/s
Maximum bit rate            : 25.0 Mb/s
Width                       : 1 920 pixels
Height                      : 1 080 pixels
Display aspect ratio        : 16:9
Frame rate mode             : Constant
Frame rate                  : 23.976 (24000/1001) FPS
Standard                    : NTSC
Color space                 : YUV
Chroma subsampling          : 4:2:0
Bit depth                   : 8 bits
Scan type                   : Progressive
Bits/(Pixel*Frame)          : 0.362
Stream size                 : 11.9 GiB (90%)
Title                       : Silver Bullet
Writing library             : x264pro - Adobe CS Exporter Plug-in
Encoding settings           : cabac=1 / ref=4 / deblock=1:-1:-1 / analyse=0x3:0x113 / me=hex / subme=7 / psy=1 / psy_rd=1.00:0.15 / mixed_ref=1 / me_range=16 / chroma_me=1 / trellis=1 / 8x8dct=1 / cqm=0 / deadzone=21,11 / fast_pskip=1 / chroma_qp_offset=-3 / threads=48 / lookahead_threads=8 / sliced_threads=0 / slices=4 / nr=0 / decimate=1 / interlaced=0 / bluray_compat=1 / constrained_intra=0 / bframes=3 / b_pyramid=1 / b_adapt=1 / b_bias=0 / direct=1 / weightb=1 / open_gop=0 / weightp=1 / keyint=24 / keyint_min=1 / scenecut=40 / intra_refresh=0 / rc_lookahead=28 / rc=2pass / mbtree=1 / bitrate=18000 / ratetol=1.0 / qcomp=0.60 / qpmin=0 / qpmax=69 / qpstep=4 / cplxblur=20.0 / qblur=0.5 / vbv_maxrate=25000 / vbv_bufsize=30000 / nal_hrd=vbr / ip_ratio=1.40 / aq=1:1.00
Language                    : English
Default                     : Yes
Forced                      : No
Color range                 : Limited
Color primaries             : BT.709
Transfer characteristics    : BT.709
Matrix coefficients         : BT.709

Audio
ID                          : 2
Format                      : DTS
Format/Info                 : Digital Theater Systems
Format profile              : MA / Core
Codec ID                    : A_DTS
Duration                    : 1 h 34 min
Bit rate mode               : Variable / Constant
Bit rate                    : 1 993 kb/s / 1 509 kb/s
Channel(s)                  : 2 channels
Channel positions           :  / Front: L R
Sampling rate               : 48.0 kHz
Frame rate                  : 93.750 FPS (512 SPF)
Bit depth                   : 24 bits
Compression mode            : Lossless / Lossy
Stream size                 : 1.32 GiB (10%)
Title                       : English
Language                    : English
Default                     : Yes
Forced                      : No

Text #1
ID                          : 3
Format                      : PGS
Muxing mode                 : zlib
Codec ID                    : S_HDMV/PGS
Codec ID/Info               : Picture based subtitle format used on BDs/HD-DVDs
Duration                    : 1 h 30 min
Bit rate                    : 14.4 kb/s
Count of elements           : 1396
Stream size                 : 9.29 MiB (0%)
Title                       : English
Language                    : English
Default                     : No
Forced                      : No

Text #2
ID                          : 4
Format                      : PGS
Muxing mode                 : zlib
Codec ID                    : S_HDMV/PGS
Codec ID/Info               : Picture based subtitle format used on BDs/HD-DVDs
Duration                    : 1 h 30 min
Bit rate                    : 19.5 kb/s
Count of elements           : 1400
Stream size                 : 12.6 MiB (0%)
Title                       : Turkish
Language                    : Turkish
Default                     : Yes
Forced                      : No

[Image: 32913052277_893755f74b_b.jpg]

[Image: 47804931772_56b7023499_b.jpg]

[Image: tdown.png]

For Only Vip Members

Silver Bullet (1985) Bluray Remux 1080p AVC DTS-HD MA 2.0 VIP
Reply


Possibly Related Threads…
Thread Author Replies Views Last Post
  Clue 1985 1080p Remux AVC DTS-HD MA 2 0-playBD KAiJu 0 54 11-27-2020, 12:07 PM
Last Post: KAiJu
  Bite the Bullet (1975) Bluray Remux 1080p TR-EN AVC DTS 5.1-HUSE admin 0 929 09-01-2019, 09:25 PM
Last Post: admin
  Kiss of the Spider Woman (1985) Bluray Remux 1080p AVC DTS 5.1 admin 0 755 08-30-2019, 11:41 AM
Last Post: admin
  Missing in Action 02 The Beginning (1985) Bluray Remux 1080p AVC DTS-HD MA 1.0 admin 0 877 08-22-2019, 08:46 AM
Last Post: admin
  Bullet to the Head (2012) Bluray Remux 1080p AVC DTS 5.1 admin 0 792 08-15-2019, 07:46 AM
Last Post: admin

Forum Jump:


Users browsing this thread: 1 Guest(s)

Powered By MyBB
Theme By Audentio Design
Updated By iAndrew | 2018