Thread Rating:
  • 0 Vote(s) - 0 Average
  • 1
  • 2
  • 3
  • 4
  • 5

[-]
Tags
bluray silent avc 1080p hd ma 1 remux dts hill 5 2006

 
  Silent Hill (2006) Bluray Remux 1080p AVC DTS-HD MA 5.1
#1
Silent Hill (2006) Bluray Remux 1080p AVC DTS-HD MA 5.1

[Image: tt0384537.jpg]

[Image: imdb.png]
https://www.imdb.com/title/tt0384537/

[Image: info.png]
Silent Hill 2006 EN.mkv
Format                      : Matroska
Format version              : Version 4 / Version 2
File size                   : 24.8 GiB
Duration                    : 2 h 5 min
Overall bit rate mode       : Variable
Overall bit rate            : 28.4 Mb/s
Encoded date                : UTC 2014-07-27 16:39:36
Writing application         : mkvmerge v7.0.0 ('Where We Going') 64bit built on Jun  9 2014 15:16:27
Writing library             : libebml v1.3.0 + libmatroska v1.4.1

Video
ID                          : 1
Format                      : AVC
Format/Info                 : Advanced Video Codec
Format profile              : [email protected]
Format settings, CABAC      : Yes
Format settings, ReFrames   : 2 frames
Codec ID                    : V_MPEG4/ISO/AVC
Duration                    : 2 h 5 min
Bit rate mode               : Variable
Bit rate                    : 26.0 Mb/s
Width                       : 1 920 pixels
Height                      : 1 080 pixels
Display aspect ratio        : 16:9
Frame rate mode             : Constant
Frame rate                  : 23.976 (23976/1000) FPS
Original frame rate         : 23.976 (24000/1001) FPS
Color space                 : YUV
Chroma subsampling          : 4:2:0
Bit depth                   : 8 bits
Scan type                   : Progressive
Bits/(Pixel*Frame)          : 0.522
Stream size                 : 22.7 GiB (92%)
Title                       : Silent Hill
Language                    : English
Default                     : Yes
Forced                      : No

Audio
ID                          : 2
Format                      : DTS
Format/Info                 : Digital Theater Systems
Format profile              : MA / Core
Mode                        : 16
Format settings, Endianness : Big
Codec ID                    : A_DTS
Duration                    : 2 h 5 min
Bit rate mode               : Variable / Constant
Bit rate                    : 2 372 kb/s / 1 509 kb/s
Channel(s)                  : 6 channels
Channel positions           : Front: L C R, Side: L R, LFE
Sampling rate               : 48.0 kHz
Frame rate                  : 93.750 FPS (512 spf)
Bit depth                   : 16 bits
Compression mode            : Lossless / Lossy
Stream size                 : 2.08 GiB (8%)
Title                       : English
Language                    : English
Default                     : Yes
Forced                      : No

Text #1
ID                          : 3
Format                      : PGS
Muxing mode                 : zlib
Codec ID                    : S_HDMV/PGS
Codec ID/Info               : Picture based subtitle format used on BDs/HD-DVDs
Duration                    : 1 h 54 min
Bit rate                    : 3 457 b/s
Count of elements           : 1836
Stream size                 : 2.83 MiB (0%)
Title                       : English
Language                    : English
Default                     : No
Forced                      : No

Text #2
ID                          : 4
Format                      : PGS
Muxing mode                 : zlib
Codec ID                    : S_HDMV/PGS
Codec ID/Info               : Picture based subtitle format used on BDs/HD-DVDs
Duration                    : 1 h 57 min
Bit rate                    : 7 611 b/s
Count of elements           : 1624
Stream size                 : 6.41 MiB (0%)
Title                       : Turkish
Language                    : Turkish
Default                     : Yes
Forced                      : No

[Image: vlcsnap-error265-jpg-3ad1774f492c31b41a2...9facc2.jpg]

[Image: vlcsnap-error748-jpg-7ea400e6e181f07cb4f...6d64fe.jpg]

[Image: tdown.png]

For Only Vip Members

Silent Hill (2006) Bluray Remux 1080p AVC DTS-HD MA 5.1 VIP
Reply


Possibly Related Threads…
Thread Author Replies Views Last Post
  Trapped Ashes 2006 1080p Remux VC-1 DTS-HD MA 5.1-playBD KAiJu 0 1 05-19-2022, 01:12 PM
Last Post: KAiJu
  The Sentinel 2006 1080p BluRay REMUX MPEG-2 DTS-HD MA 5.1-Skoops KAiJu 0 14 05-12-2022, 09:55 AM
Last Post: KAiJu
  The Last Winter 2006 1080p Blu-ray Remux AVC DTS-HD MA 5.1 - KRaLiMaRKo KAiJu 0 17 05-09-2022, 12:07 PM
Last Post: KAiJu
  Shoot the Messenger 2006 1080i Blu-ray Remux AVC FLAC 2 0-HDT KAiJu 0 26 04-17-2022, 09:36 AM
Last Post: KAiJu
  London to Brighton 2006 1080i BluRay Remux AVC DTS-HD MA5 1-HQMUX KAiJu 0 42 04-15-2022, 12:12 PM
Last Post: KAiJu

Forum Jump:


Users browsing this thread: 1 Guest(s)

Powered By MyBB
RSS RSS Syndication
Updated By iAndrew | 2022