Thread Rating:
  • 0 Vote(s) - 0 Average
  • 1
  • 2
  • 3
  • 4
  • 5

[-]
Tags
bluray shutter avc 1080p 1 remux dts 5 2008

  Shutter (2008) Bluray Remux 1080p AVC DTS 5.1
#1
Shutter (2008) Bluray Remux 1080p AVC DTS 5.1

[Image: tt0482599.jpg]

[Image: imdb.png]
https://www.imdb.com/title/tt0482599/

[Image: info.png]
Shutter 2008 EN.mkv
Format                      : Matroska
Format version              : Version 4 / Version 2
File size                   : 22.9 GiB
Duration                    : 1 h 29 min
Overall bit rate mode       : Variable
Overall bit rate            : 36.6 Mb/s
Movie name                  : Shutter
Encoded date                : UTC 2015-12-27 14:45:12
Writing application         : mkvmerge v8.3.0 ('Over the Horizon') 64bit
Writing library             : libebml v1.3.1 + libmatroska v1.4.2

Video
ID                          : 1
Format                      : AVC
Format/Info                 : Advanced Video Codec
Format profile              : [email protected]
Format settings             : CABAC / 4 Ref Frames
Format settings, CABAC      : Yes
Format settings, ReFrames   : 4 frames
Codec ID                    : V_MPEG4/ISO/AVC
Duration                    : 1 h 29 min
Bit rate mode               : Variable
Bit rate                    : 33.6 Mb/s
Maximum bit rate            : 35.5 Mb/s
Width                       : 1 920 pixels
Height                      : 1 080 pixels
Display aspect ratio        : 16:9
Frame rate mode             : Constant
Frame rate                  : 23.976 (24000/1001) FPS
Standard                    : NTSC
Color space                 : YUV
Chroma subsampling          : 4:2:0
Bit depth                   : 8 bits
Scan type                   : Progressive
Bits/(Pixel*Frame)          : 0.675
Stream size                 : 21.0 GiB (92%)
Title                       : Shutter
Language                    : English
Default                     : Yes
Forced                      : No
Color range                 : Limited
Color primaries             : BT.709
Transfer characteristics    : BT.709
Matrix coefficients         : BT.709

Audio
ID                          : 2
Format                      : DTS
Format/Info                 : Digital Theater Systems
Format profile              : HRA / Core
Codec ID                    : A_DTS
Duration                    : 1 h 29 min
Bit rate mode               : Constant
Bit rate                    : 3 018 kb/s / 1 509 kb/s
Channel(s)                  : 6 channels
Channel positions           : Front: L C R, Side: L R, LFE
Sampling rate               : 48.0 kHz
Frame rate                  : 93.750 FPS (512 SPF)
Bit depth                   : 24 bits
Compression mode            : Lossy
Stream size                 : 1.89 GiB (8%)
Title                       : English
Language                    : English
Default                     : Yes
Forced                      : No

Text #1
ID                          : 3
Format                      : PGS
Muxing mode                 : zlib
Codec ID                    : S_HDMV/PGS
Codec ID/Info               : Picture based subtitle format used on BDs/HD-DVDs
Duration                    : 1 h 22 min
Bit rate                    : 6 538 b/s
Count of elements           : 1362
Stream size                 : 3.88 MiB (0%)
Title                       : English
Language                    : English
Default                     : No
Forced                      : No

Text #2
ID                          : 4
Format                      : PGS
Muxing mode                 : zlib
Codec ID                    : S_HDMV/PGS
Codec ID/Info               : Picture based subtitle format used on BDs/HD-DVDs
Duration                    : 1 h 22 min
Bit rate                    : 6 382 b/s
Count of elements           : 1374
Stream size                 : 3.78 MiB (0%)
Title                       : Turkish
Language                    : Turkish
Default                     : Yes
Forced                      : No

[Image: 32936995897_0e986d3966_b.jpg]

[Image: 34003966298_b4c84a8ceb_b.jpg]

[Image: tdown.png]

For Only Vip Members

Shutter (2008) Bluray Remux 1080p AVC DTS 5.1 VIP
Reply


Possibly Related Threads…
Thread Author Replies Views Last Post
  Shutter Island (2010) Bluray Remux 1080p TR EN AVC DTS-HD MA 5.1 admin 0 313 07-27-2019, 11:03 AM
Last Post: admin

Forum Jump:


Users browsing this thread: 1 Guest(s)

Powered By MyBB
Theme By Audentio Design
Updated By iAndrew | 2018