Thread Rating:
  • 0 Vote(s) - 0 Average
  • 1
  • 2
  • 3
  • 4
  • 5

[-]
Tags
bluray shrek 810p x264 the prodji 2001 2010 complete collection

  Shrek The Complete Collection (2001-2010) BluRay 810p x264-PRoDJi
#1
Shrek The Complete Collection (2001-2010) BluRay 810p x264-PRoDJi

[Image: shrek.jpg]

[Image: imdb.png]
https://www.imdb.com/title/tt0126029/
https://www.imdb.com/title/tt0298148/
https://www.imdb.com/title/tt0413267/
https://www.imdb.com/title/tt0892791/

[Image: info.png]
Format : Matroska
Format version : Version 4
File size : 4.37 GiB
Duration : 1 h 30 min
Overall bit rate : 6 947 kb/s
Encoded date : UTC 2014-12-04 09:23:11
Writing application : mkvmerge v7.3.0 ('Nouages') 64bit built on Oct 22 2014 18:53:34
Writing library : libebml v1.3.0 + libmatroska v1.4.1

Video
ID : 1
Format : AVC
Format/Info : Advanced Video Codec
Format profile : [email protected]
Format settings : CABAC / 7 Ref Frames
Format settings, CABAC : Yes
Format settings, RefFrames : 7 frames
Codec ID : V_MPEG4/ISO/AVC
Duration : 1 h 30 min
Bit rate : 5 660 kb/s
Width : 1 440 pixels
Height : 810 pixels
Display aspect ratio : 16:9
Frame rate mode : Constant
Frame rate : 23.976 FPS
Color space : YUV
Chroma subsampling : 4:2:0
Bit depth : 8 bits
Scan type : Progressive
Bits/(Pixel*Frame) : 0.202
Stream size : 3.56 GiB (82%)
Title : @5660Kbps High Profiles @L4.1
Writing library : x264 core 98 r1649 c54c47d
Encoding settings : cabac=1 / ref=7 / deblock=1:-2:-2 / analyse=0x3:0x113 / me=hex / subme=9 / psy=1 / psy_rd=1.00:0.00 / mixed_ref=1 / me_range=16 / chroma_me=1 / trellis=0 / 8x8dct=1 / cqm=2 / deadzone=21,11 / fast_pskip=1 / chroma_qp_offset=-2 / threads=2 / sliced_threads=0 / nr=0 / decimate=0 / interlaced=0 / constrained_intra=0 / bframes=3 / b_pyramid=2 / b_adapt=1 / b_bias=0 / direct=1 / weightb=1 / weightp=2 / keyint=250 / keyint_min=25 / scenecut=40 / intra_refresh=0 / rc_lookahead=40 / rc=2pass / mbtree=1 / bitrate=5660 / ratetol=2.0 / qcomp=0.60 / qpmin=10 / qpmax=51 / qpstep=4 / cplxblur=20.0 / qblur=0.5 / vbv_maxrate=38000 / vbv_bufsize=30000 / ip_ratio=1.40 / aq=1:1.00 / nal_hrd=none
Language : English
Default : Yes
Forced : No

Audio #1
ID : 2
Format : AC-3
Format/Info : Audio Coding 3
Commercial name : Dolby Digital
Codec ID : A_AC3
Duration : 1 h 30 min
Bit rate mode : Constant
Bit rate : 640 kb/s
Channel(s) : 6 channels
Channel layout : L R C LFE Ls Rs
Sampling rate : 48.0 kHz
Frame rate : 31.250 FPS (1536 SPF)
Bit depth : 16 bits
Compression mode : Lossy
Stream size : 412 MiB (9%)
Title : [email protected] 6 chnls
Language : English
Service kind : Complete Main
Default : Yes
Forced : No

Audio #2
ID : 11
Format : AC-3
Format/Info : Audio Coding 3
Commercial name : Dolby Digital
Codec ID : A_AC3
Duration : 1 h 30 min
Bit rate mode : Constant
Bit rate : 640 kb/s
Channel(s) : 6 channels
Channel layout : L R C LFE Ls Rs
Sampling rate : 48.0 kHz
Frame rate : 31.250 FPS (1536 SPF)
Bit depth : 16 bits
Compression mode : Lossy
Stream size : 412 MiB (9%)
Title : [email protected] 6 chnls
Language : Turkish
Service kind : Complete Main
Default : No
Forced : No

Text #1
ID : 3
Format : UTF-8
Codec ID : S_TEXT/UTF8
Codec ID/Info : UTF-8 Plain Text
Duration : 1 h 22 min
Bit rate : 61 b/s
Count of elements : 912
Stream size : 36.9 KiB (0%)
Language : English
Default : No
Forced : No

Text #2
ID : 4
Format : UTF-8
Codec ID : S_TEXT/UTF8
Codec ID/Info : UTF-8 Plain Text
Duration : 1 h 22 min
Bit rate : 60 b/s
Count of elements : 836
Stream size : 36.2 KiB (0%)
Language : Turkish
Default : No
Forced : No

Text #3
ID : 5
Format : UTF-8
Codec ID : S_TEXT/UTF8
Codec ID/Info : UTF-8 Plain Text
Duration : 1 h 22 min
Bit rate : 58 b/s
Count of elements : 836
Stream size : 35.4 KiB (0%)
Language : Italian
Default : No
Forced : No

Text #4
ID : 6
Format : UTF-8
Codec ID : S_TEXT/UTF8
Codec ID/Info : UTF-8 Plain Text
Duration : 1 h 22 min
Bit rate : 50 b/s
Count of elements : 920
Stream size : 30.4 KiB (0%)
Language : Bosnian
Default : No
Forced : No

Text #5
ID : 7
Format : UTF-8
Codec ID : S_TEXT/UTF8
Codec ID/Info : UTF-8 Plain Text
Duration : 1 h 20 min
Bit rate : 104 b/s
Count of elements : 906
Stream size : 62.1 KiB (0%)
Language : Greek
Default : No
Forced : No

Text #6
ID : 8
Format : UTF-8
Codec ID : S_TEXT/UTF8
Codec ID/Info : UTF-8 Plain Text
Duration : 1 h 22 min
Bit rate : 61 b/s
Count of elements : 837
Stream size : 37.0 KiB (0%)
Language : French
Default : No
Forced : No

Text #7
ID : 9
Format : UTF-8
Codec ID : S_TEXT/UTF8
Codec ID/Info : UTF-8 Plain Text
Duration : 1 h 29 min
Bit rate : 67 b/s
Count of elements : 1280
Stream size : 44.0 KiB (0%)
Language : Spanish
Default : No
Forced : No

Text #8
ID : 10
Format : UTF-8
Codec ID : S_TEXT/UTF8
Codec ID/Info : UTF-8 Plain Text
Duration : 1 h 22 min
Bit rate : 49 b/s
Count of elements : 825
Stream size : 29.9 KiB (0%)
Language : Slovenian
Default : No
Forced : No

Menu
00:00:00.000 : en:00:00:00.000
00:04:56.755 : en:00:04:56.755
00:11:42.702 : en:00:11:42.702
00:15:58.749 : en:00:15:58.749
00:20:11.335 : en:00:20:11.335
00:26:19.411 : en:00:26:19.411
00:31:40.023 : en:00:31:40.023
00:35:13.236 : en:00:35:13.236
00:40:23.963 : en:00:40:23.963
00:45:01.115 : en:00:45:01.115
00:49:16.162 : en:00:49:16.162
00:55:27.658 : en:00:55:27.658
01:00:54.234 : en:01:00:54.234
01:05:33.304 : en:01:05:33.304
01:09:16.152 : en:01:09:16.152
01:11:32.663 : en:01:11:32.663
01:14:51.112 : en:01:14:51.112
01:17:33.774 : en:01:17:33.774
01:20:53.098 : en:01:20:53.098
01:23:01.977 : en:01:23:01.977

[Image: 1.jpg]

[Image: 2.jpg]

[Image: tdown.png]

For Only Vip Members
Reply


Possibly Related Threads…
Thread Author Replies Views Last Post
  Magnolia (1999) Bluray 1080p EN-TR DTS x264-PRoDJi AbrA 0 118 06-20-2020, 08:00 PM
Last Post: AbrA
  Dave (1993) BluRay 1080p EN-TR DTS 2.0 x264-PRoDJi AbrA 0 179 06-10-2020, 09:05 AM
Last Post: AbrA
  Fear and Loathing In Las Vegas (1998) Criterion Collection Bluray 1080p EN-TR DD 5.1 AbrA 0 209 04-09-2020, 07:01 AM
Last Post: AbrA
  Terminator Dark Fate (2019) BluRay 1080p EN-TR DDP x264-PRoDJi AbrA 0 259 04-04-2020, 03:32 PM
Last Post: AbrA
  Scrooged (1988) BluRay 1080p EN-TR DTS 5.1 x264-PRoDJi AbrA 0 242 04-04-2020, 02:22 PM
Last Post: AbrA

Forum Jump:


Users browsing this thread: 1 Guest(s)

Powered By MyBB
Theme By Audentio Design
Updated By iAndrew | 2018