Thread Rating:
  • 0 Vote(s) - 0 Average
  • 1
  • 2
  • 3
  • 4
  • 5

[-]
Tags
bluray shoot up em 1080p 2007 hd ma 1 vc remux dts 5

 
  Shoot Em Up (2007) Bluray Remux 1080p VC-1 DTS-HD MA 5.1
#1
Shoot Em Up (2007) Bluray Remux 1080p VC-1 DTS-HD MA 5.1

[Image: tt0465602.jpg]

[Image: imdb.png]
https://www.imdb.com/title/tt0465602/

[Image: info.png]
Shoot 'Em Up 2007 EN.mkv
Format                      : Matroska
Format version              : Version 4 / Version 2
File size                   : 18.7 GiB
Duration                    : 1 h 26 min
Overall bit rate            : 30.9 Mb/s
Movie name                  : Shoot 'Em Up
Encoded date                : UTC 2015-09-03 20:15:04
Writing application         : mkvmerge v8.3.0 ('Over the Horizon') 64bit
Writing library             : libebml v1.3.1 + libmatroska v1.4.2

Video
ID                          : 1
Format                      : VC-1
Format profile              : [email protected]
Codec ID                    : V_MS/VFW/FOURCC / WVC1
Codec ID/Hint               : Microsoft
Duration                    : 1 h 26 min
Bit rate                    : 25.3 Mb/s
Width                       : 1 920 pixels
Height                      : 1 080 pixels
Display aspect ratio        : 16:9
Frame rate mode             : Constant
Frame rate                  : 23.976 (24000/1001) FPS
Color space                 : YUV
Chroma subsampling          : 4:2:0
Bit depth                   : 8 bits
Scan type                   : Progressive
Compression mode            : Lossy
Bits/(Pixel*Frame)          : 0.509
Stream size                 : 15.3 GiB (82%)
Title                       : Shoot 'Em Up
Language                    : English
Default                     : Yes
Forced                      : No

Audio
ID                          : 2
Format                      : DTS
Format/Info                 : Digital Theater Systems
Format profile              : MA / Core
Mode                        : 16
Format settings, Endianness : Big
Codec ID                    : A_DTS
Duration                    : 1 h 26 min
Bit rate mode               : Variable / Constant
Bit rate                    : 5 582 kb/s / 1 509 kb/s
Channel(s)                  : 8 channels / 6 channels
Channel positions           : Front: L C R, Side: L R, Wide: L R, LFE / Front: L C R, Side: L R, LFE
Sampling rate               : 48.0 kHz
Frame rate                  : 93.750 FPS (512 spf)
Bit depth                   : 24 bits
Compression mode            : Lossless / Lossy
Stream size                 : 3.37 GiB (18%)
Title                       : English
Language                    : English
Default                     : Yes
Forced                      : No

Text #1
ID                          : 3
Format                      : PGS
Muxing mode                 : zlib
Codec ID                    : S_HDMV/PGS
Codec ID/Info               : Picture based subtitle format used on BDs/HD-DVDs
Duration                    : 1 h 21 min
Bit rate                    : 15.1 kb/s
Count of elements           : 2677
Stream size                 : 8.79 MiB (0%)
Title                       : English
Language                    : English
Default                     : No
Forced                      : No

Text #2
ID                          : 4
Format                      : PGS
Muxing mode                 : zlib
Codec ID                    : S_HDMV/PGS
Codec ID/Info               : Picture based subtitle format used on BDs/HD-DVDs
Duration                    : 1 h 25 min
Bit rate                    : 9 702 b/s
Count of elements           : 1626
Stream size                 : 5.93 MiB (0%)
Title                       : Turkish
Language                    : Turkish
Default                     : Yes
Forced                      : No

[Image: vlcsnap-error423-jpg-4955de64e8a804d7436...017e20.jpg]

[Image: vlcsnap-error579-jpg-43a046bd9e06adac62b...b6eb7a.jpg]

[Image: tdown.png]

For Only Vip Members

Shoot Em Up (2007) Bluray Remux 1080p VC-1 DTS-HD MA 5.1 VIP
Reply


Possibly Related Threads…
Thread Author Replies Views Last Post
  Om Shanti Om 2007 Bluray Remux 1080p VC-1 TrueHD 5 1- RK KAiJu 0 13 11-09-2021, 07:10 AM
Last Post: KAiJu
  Hot Rod 2007 1080p Remux VC-1 TrueHD 5 1-playBD KAiJu 0 40 09-12-2021, 12:53 PM
Last Post: KAiJu
  The Grand 2007 1080p Blu-ray Remux AVC DTS-HD MA 5.1 - KRaLiMaRKo KAiJu 0 51 09-09-2021, 06:33 AM
Last Post: KAiJu
  Ghost Rider (2007) Bluray REMUX 1080p AVC DD 5.1-HUS AbrA 0 57 08-03-2021, 10:17 AM
Last Post: AbrA
  IMAX-Dinosaurs Giants of Patagonia (2007) Bluray REMUX 1080p MVC DTS-HD MA 5.1-HUS AbrA 0 83 07-08-2021, 11:35 AM
Last Post: AbrA

Forum Jump:


Users browsing this thread: 1 Guest(s)

Powered By MyBB
RSS RSS Syndication
Updated By iAndrew | 2021