Thread Rating:
  • 0 Vote(s) - 0 Average
  • 1
  • 2
  • 3
  • 4
  • 5

[-]
Tags
blade bluray heart shinobi under jp avc 1080p en 1 remux 2005 5 truehd

 
  Shinobi Heart Under Blade (2005) Bluray Remux 1080p JP-EN AVC TrueHD 5.1
#1
Shinobi Heart Under Blade (2005) Bluray Remux 1080p JP-EN AVC TrueHD 5.1

[Image: tt0475723.jpg]

[Image: imdb.png]
https://www.imdb.com/title/tt0475723/

[Image: info.png]
Shinobi Heart Under Blade 2005 JP EN.mkv
Format                      : Matroska
Format version              : Version 4 / Version 2
File size                   : 15.2 GiB
Duration                    : 1 h 42 min
Overall bit rate mode       : Variable
Overall bit rate            : 21.3 Mb/s
Movie name                  : Shinobi: Heart Under Blade
Encoded date                : UTC 2017-09-16 09:41:06
Writing application         : mkvmerge v15.0.0 ('Duel with the Devil') 64-bit
Writing library             : libebml v1.3.5 + libmatroska v1.4.5

Video
ID                          : 1
Format                      : AVC
Format/Info                 : Advanced Video Codec
Format profile              : [email protected]
Format settings, CABAC      : Yes
Format settings, ReFrames   : 4 frames
Codec ID                    : V_MPEG4/ISO/AVC
Duration                    : 1 h 42 min
Bit rate mode               : Variable
Bit rate                    : 18.2 Mb/s
Maximum bit rate            : 40.0 Mb/s
Width                       : 1 920 pixels
Height                      : 1 080 pixels
Display aspect ratio        : 16:9
Frame rate mode             : Constant
Frame rate                  : 23.976 (24000/1001) FPS
Standard                    : NTSC
Color space                 : YUV
Chroma subsampling          : 4:2:0
Bit depth                   : 8 bits
Scan type                   : Progressive
Bits/(Pixel*Frame)          : 0.366
Stream size                 : 13.0 GiB (85%)
Title                       : Shinobi: Heart Under Blade
Language                    : Japanese
Default                     : Yes
Forced                      : No
Color range                 : Limited
Color primaries             : BT.709
Transfer characteristics    : BT.709
Matrix coefficients         : BT.709

Audio #1
ID                          : 2
Format                      : TrueHD
Codec ID                    : A_TRUEHD
Duration                    : 1 h 42 min
Bit rate mode               : Variable
Bit rate                    : 1 434 kb/s
Maximum bit rate            : 2 673 kb/s
Channel(s)                  : 6 channels
Channel positions           : Front: L C R, Side: L R, LFE
Sampling rate               : 48.0 kHz
Frame rate                  : 1 200.000 FPS (40 spf)
Compression mode            : Lossless
Stream size                 : 1.02 GiB (7%)
Title                       : English
Language                    : English
Default                     : No
Forced                      : No

Audio #2
ID                          : 3
Format                      : TrueHD
Codec ID                    : A_TRUEHD
Duration                    : 1 h 42 min
Bit rate mode               : Variable
Bit rate                    : 1 528 kb/s
Maximum bit rate            : 3 063 kb/s
Channel(s)                  : 7 channels
Channel positions           : Front: L C R, Side: L R, Back: C, LFE
Sampling rate               : 48.0 kHz
Frame rate                  : 1 200.000 FPS (40 spf)
Compression mode            : Lossless
Stream size                 : 1.09 GiB (7%)
Title                       : Japanese
Language                    : Japanese
Default                     : Yes
Forced                      : No

Text #1
ID                          : 4
Format                      : PGS
Muxing mode                 : zlib
Codec ID                    : S_HDMV/PGS
Codec ID/Info               : Picture based subtitle format used on BDs/HD-DVDs
Duration                    : 1 h 40 min
Bit rate                    : 2 059 b/s
Count of elements           : 74
Stream size                 : 1.49 MiB (0%)
Title                       : English
Language                    : English
Default                     : No
Forced                      : No

Text #2
ID                          : 5
Format                      : PGS
Muxing mode                 : zlib
Codec ID                    : S_HDMV/PGS
Codec ID/Info               : Picture based subtitle format used on BDs/HD-DVDs
Duration                    : 1 h 33 min
Bit rate                    : 10.3 kb/s
Count of elements           : 992
Stream size                 : 6.90 MiB (0%)
Title                       : Turkish
Language                    : Turkish
Default                     : Yes
Forced                      : No

[Image: vlcsnap-error097-jpg-f493b02bc5bc7cc1cb2...7573f8.jpg]

[Image: vlcsnap-error567-jpg-29be53afef1759f7c80...41cd19.jpg]

[Image: tdown.png]

For Only Vip Members

Shinobi Heart Under Blade (2005) Bluray Remux 1080p JP-EN AVC TrueHD 5.1 VIP
Reply


Possibly Related Threads…
Thread Author Replies Views Last Post
  Transamerica 2005 BluRay 1080p TrueHD h264 Remux-decibeL KAiJu 0 9 11-15-2021, 08:56 PM
Last Post: KAiJu
  The Fog 2005 1080p Blu-ray Remux AVC DTS-HD MA 5.1 - KRaLiMaRKo KAiJu 0 11 11-12-2021, 07:20 AM
Last Post: KAiJu
  Chaos 2005 1080p Blu-ray Remux AVC FLAC 2.0 - KRaLiMaRKo KAiJu 0 9 11-11-2021, 12:29 PM
Last Post: KAiJu
  Hostel Trilogie 2005-2011 German 1080p DL BluRay Remux-pmHD KAiJu 0 37 10-14-2021, 06:49 AM
Last Post: KAiJu
  The Longest Yard 2005 1080p Blu-ray Remux AVC DTS-HD MA 5.1-HDT KAiJu 0 59 10-03-2021, 08:35 AM
Last Post: KAiJu

Forum Jump:


Users browsing this thread: 1 Guest(s)

Powered By MyBB
RSS RSS Syndication
Updated By iAndrew | 2021