Thread Rating:
  • 0 Vote(s) - 0 Average
  • 1
  • 2
  • 3
  • 4
  • 5

[-]
Tags
2000 shanghai bluray noon avc 1080p hd ma 1 remux dts 5

 
  Shanghai Noon (2000) Bluray Remux 1080p AVC DTS-HD MA 5.1
#1
Shanghai Noon (2000) Bluray Remux 1080p AVC DTS-HD MA 5.1

[Image: tt0184894.jpg]

[Image: imdb.png]
https://www.imdb.com/title/tt0184894/

[Image: info.png]
Shanghai Noon 2000 EN.mkv
Format                      : Matroska
Format version              : Version 4 / Version 2
File size                   : 20.9 GiB
Duration                    : 1 h 50 min
Overall bit rate mode       : Variable
Overall bit rate            : 27.1 Mb/s
Encoded date                : UTC 2014-07-29 09:06:05
Writing application         : mkvmerge v7.1.0 ('Good Love') 64bit built on Jul 27 2014 13:06:55
Writing library             : libebml v1.3.0 + libmatroska v1.4.1

Video
ID                          : 1
Format                      : AVC
Format/Info                 : Advanced Video Codec
Format profile              : [email protected]
Format settings, CABAC      : Yes
Format settings, ReFrames   : 4 frames
Format settings, GOP        : M=3, N=24
Codec ID                    : V_MPEG4/ISO/AVC
Duration                    : 1 h 50 min
Bit rate mode               : Variable
Bit rate                    : 25.0 Mb/s
Maximum bit rate            : 35.0 Mb/s
Width                       : 1 920 pixels
Height                      : 1 080 pixels
Display aspect ratio        : 16:9
Frame rate mode             : Constant
Frame rate                  : 23.976 (24000/1001) FPS
Standard                    : NTSC
Color space                 : YUV
Chroma subsampling          : 4:2:0
Bit depth                   : 8 bits
Scan type                   : Progressive
Bits/(Pixel*Frame)          : 0.503
Stream size                 : 19.3 GiB (92%)
Title                       : Shanghai Noon
Language                    : English
Default                     : Yes
Forced                      : No
Color range                 : Limited
Color primaries             : BT.709
Transfer characteristics    : BT.709
Matrix coefficients         : BT.709

Audio
ID                          : 2
Format                      : DTS
Format/Info                 : Digital Theater Systems
Format profile              : HRA / Core
Mode                        : 16
Format settings, Endianness : Big
Codec ID                    : A_DTS
Duration                    : 1 h 50 min
Bit rate mode               : Constant
Bit rate                    : 2 046 kb/s / 1 509 kb/s
Channel(s)                  : 6 channels
Channel positions           : Front: L C R, Side: L R, LFE
Sampling rate               : 48.0 kHz
Frame rate                  : 93.750 FPS (512 spf)
Bit depth                   : 16 bits
Compression mode            : Lossy
Stream size                 : 1.58 GiB (8%)
Title                       : English
Language                    : English
Default                     : Yes
Forced                      : No

Text
ID                          : 3
Format                      : PGS
Muxing mode                 : zlib
Codec ID                    : S_HDMV/PGS
Codec ID/Info               : Picture based subtitle format used on BDs/HD-DVDs
Duration                    : 1 h 43 min
Bit rate                    : 11.8 kb/s
Count of elements           : 1890
Stream size                 : 8.79 MiB (0%)
Title                       : Turkish
Language                    : Turkish
Default                     : Yes
Forced                      : No

[Image: vlcsnap-error015-jpg-da581256418d0455ca9...192199.jpg]

[Image: vlcsnap-error510-jpg-53ab745fefe63d17b45...69e95c.jpg]

[Image: tdown.png]

For Only Vip Members

Shanghai Noon (2000) Bluray Remux 1080p AVC DTS-HD MA 5.1 VIP
Reply


Possibly Related Threads…
Thread Author Replies Views Last Post
  Love and Basketball 2000 1080p BluRay REMUX AVC DTS-HD MA 5.1-TRiToN KAiJu 0 5 Yesterday, 02:27 PM
Last Post: KAiJu
  Downtown 81 2000 1080p Blu-ray Remux AVC DTS-HD MA 5.1-HDT KAiJu 0 6 11-26-2021, 07:13 AM
Last Post: KAiJu
  Shanghai Joe 1973 1080p Blu-ray Remux AVC DD 2 0-HDT KAiJu 0 12 11-08-2021, 03:23 PM
Last Post: KAiJu
  Battle Royale 2000 1080p Blu-ray Remux AVC DTS-HD MA 5.1-HDT KAiJu 0 24 10-30-2021, 10:20 PM
Last Post: KAiJu
  Cut 2000 1080p BluRay Remux AVC DTS-HD MA 2 0-SPHD KAiJu 0 25 10-28-2021, 08:38 PM
Last Post: KAiJu

Forum Jump:


Users browsing this thread: 1 Guest(s)

Powered By MyBB
RSS RSS Syndication
Updated By iAndrew | 2021