Thread Rating:
  • 0 Vote(s) - 0 Average
  • 1
  • 2
  • 3
  • 4
  • 5

[-]
Tags
bluray lies sex 1989 avc 1080p and 1 remux videotape 5 truehd

 
  Sex Lies and Videotape (1989) Bluray Remux 1080p AVC TrueHD 5.1
#1
Sex Lies and Videotape (1989) Bluray Remux 1080p AVC TrueHD 5.1

[Image: tt0098724.jpg]

[Image: imdb.png]
https://www.imdb.com/title/tt0098724/

[Image: info.png]
Sex, Lies, and Videotape 1989 EN.mkv
Format                      : Matroska
Format version              : Version 4 / Version 2
File size                   : 23.5 GiB
Duration                    : 1 h 40 min
Overall bit rate mode       : Variable
Overall bit rate            : 33.6 Mb/s
Movie name                  : Sex, Lies, and Videotape
Encoded date                : UTC 2016-11-26 14:21:51
Writing application         : mkvmerge v9.5.0 ('Quiet Fire') 64bit
Writing library             : libebml v1.3.4 + libmatroska v1.4.5

Video
ID                          : 1
Format                      : AVC
Format/Info                 : Advanced Video Codec
Format profile              : [email protected]
Format settings, CABAC      : Yes
Format settings, ReFrames   : 2 frames
Codec ID                    : V_MPEG4/ISO/AVC
Duration                    : 1 h 39 min
Bit rate mode               : Variable
Bit rate                    : 27.8 Mb/s
Width                       : 1 920 pixels
Height                      : 1 080 pixels
Display aspect ratio        : 16:9
Frame rate mode             : Constant
Frame rate                  : 23.976 (24000/1001) FPS
Color space                 : YUV
Chroma subsampling          : 4:2:0
Bit depth                   : 8 bits
Scan type                   : Progressive
Bits/(Pixel*Frame)          : 0.558
Stream size                 : 19.4 GiB (83%)
Title                       : Sex, Lies, and Videotape
Language                    : English
Default                     : Yes
Forced                      : No

Audio #1
ID                          : 2
Format                      : TrueHD
Codec ID                    : A_TRUEHD
Duration                    : 1 h 39 min
Bit rate mode               : Variable
Bit rate                    : 5 120 kb/s
Maximum bit rate            : 7 572 kb/s
Channel(s)                  : 6 channels
Channel positions           : Front: L C R, Side: L R, LFE
Sampling rate               : 96.0 kHz
Frame rate                  : 2 400.000 FPS (40 spf)
Compression mode            : Lossless
Stream size                 : 3.58 GiB (15%)
Title                       : English THD
Language                    : English
Default                     : Yes
Forced                      : No

Audio #2
ID                          : 3
Format                      : AC-3
Format/Info                 : Audio Coding 3
Format settings, Endianness : Big
Codec ID                    : A_AC3
Duration                    : 1 h 40 min
Bit rate mode               : Constant
Bit rate                    : 640 kb/s
Channel(s)                  : 6 channels
Channel positions           : Front: L C R, Side: L R, LFE
Sampling rate               : 48.0 kHz
Frame rate                  : 31.250 FPS (1536 spf)
Bit depth                   : 16 bits
Compression mode            : Lossy
Stream size                 : 458 MiB (2%)
Title                       : English AC3
Language                    : English
Service kind                : Complete Main
Default                     : No
Forced                      : No

Text #1
ID                          : 4
Format                      : PGS
Muxing mode                 : zlib
Codec ID                    : S_HDMV/PGS
Codec ID/Info               : Picture based subtitle format used on BDs/HD-DVDs
Duration                    : 1 h 37 min
Bit rate                    : 11.5 kb/s
Count of elements           : 2445
Stream size                 : 8.02 MiB (0%)
Title                       : English
Language                    : English
Default                     : No
Forced                      : No

Text #2
ID                          : 5
Format                      : PGS
Muxing mode                 : zlib
Codec ID                    : S_HDMV/PGS
Codec ID/Info               : Picture based subtitle format used on BDs/HD-DVDs
Duration                    : 1 h 37 min
Bit rate                    : 10.5 kb/s
Count of elements           : 2451
Stream size                 : 7.31 MiB (0%)
Title                       : Turkish
Language                    : Turkish
Default                     : Yes
Forced                      : No

[Image: vlcsnap-error726-jpg-cc45b1fcf701ec6e6f3...826871.jpg]

[Image: vlcsnap-error938-jpg-efab2553d8b2797f882...fb6fc0.jpg]

[Image: tdown.png]

For Only Vip Members

Sex Lies and Videotape (1989) Bluray Remux 1080p AVC TrueHD 5.1 VIP
Reply


Possibly Related Threads…
Thread Author Replies Views Last Post
  The Phantom Of The Opera 1989 1080p Blu-ray Remux AVC DTS-HD MA 5.1-HDT KAiJu 0 16 05-09-2022, 06:32 AM
Last Post: KAiJu
  Fortress Of Amerikkka 1989 1080p Blu-ray Remux AVC DTS-HD MA 2 0-HDT KAiJu 0 35 03-30-2022, 01:06 PM
Last Post: KAiJu
  River of Death 1989 1080p Remux AVC DTS-HD MA 2 0-playBD KAiJu 0 58 03-10-2022, 12:03 PM
Last Post: KAiJu
  Grave Secrets 1989 1080p Blu-ray Remux AVC DTS-HD MA 2 0-HDT KAiJu 0 58 03-09-2022, 06:39 AM
Last Post: KAiJu
  Monsieur Hire 1989 1080p Blu-ray Remux AVC DTS-HD MA 2 0-HDT KAiJu 0 58 02-28-2022, 03:03 PM
Last Post: KAiJu

Forum Jump:


Users browsing this thread: 1 Guest(s)

Powered By MyBB
RSS RSS Syndication
Updated By iAndrew | 2022