Thread Rating:
  • 0 Vote(s) - 0 Average
  • 1
  • 2
  • 3
  • 4
  • 5

[-]
Tags
bluray 1080p senna hd ma 1 vc remux 2010 dts 5

 
  Senna (2010) Bluray Remux 1080p VC-1 DTS-HD MA 5.1
#1
Senna (2010) Bluray Remux 1080p VC-1 DTS-HD MA 5.1

[Image: tt1424432.jpg]

[Image: imdb.png]
https://www.imdb.com/title/tt1424432/

[Image: info.png]
Senna 2010 EN.mkv
Format                      : Matroska
Format version              : Version 4 / Version 2
File size                   : 29.0 GiB
Duration                    : 2 h 42 min
Overall bit rate            : 25.7 Mb/s
Movie name                  : Senna
Encoded date                : UTC 2016-12-02 13:52:50
Writing application         : mkvmerge v9.6.0 ('Slave To Your Mind') 64bit
Writing library             : libebml v1.3.4 + libmatroska v1.4.5

Video
ID                          : 1
Format                      : VC-1
Format profile              : [email protected]
Codec ID                    : V_MS/VFW/FOURCC / WVC1
Codec ID/Hint               : Microsoft
Duration                    : 2 h 42 min
Bit rate                    : 22.5 Mb/s
Width                       : 1 920 pixels
Height                      : 1 080 pixels
Display aspect ratio        : 16:9
Frame rate mode             : Constant
Frame rate                  : 23.976 (24000/1001) FPS
Color space                 : YUV
Chroma subsampling          : 4:2:0
Bit depth                   : 8 bits
Scan type                   : Progressive
Compression mode            : Lossy
Bits/(Pixel*Frame)          : 0.453
Stream size                 : 25.5 GiB (88%)
Title                       : Senna
Language                    : English
Default                     : Yes
Forced                      : No

Audio
ID                          : 2
Format                      : DTS
Format/Info                 : Digital Theater Systems
Format profile              : MA / Core
Mode                        : 16
Format settings, Endianness : Big
Codec ID                    : A_DTS
Duration                    : 2 h 42 min
Bit rate mode               : Variable / Constant
Bit rate                    : 3 072 kb/s / 1 509 kb/s
Channel(s)                  : 6 channels
Channel positions           : Front: L C R, Side: L R, LFE
Sampling rate               : 48.0 kHz
Frame rate                  : 93.750 FPS (512 spf)
Bit depth                   : 24 bits
Compression mode            : Lossless / Lossy
Stream size                 : 3.49 GiB (12%)
Title                       : English
Language                    : English
Default                     : Yes
Forced                      : No

Text #1
ID                          : 3
Format                      : PGS
Muxing mode                 : zlib
Codec ID                    : S_HDMV/PGS
Codec ID/Info               : Picture based subtitle format used on BDs/HD-DVDs
Duration                    : 2 h 37 min
Bit rate                    : 13.5 kb/s
Count of elements           : 3884
Stream size                 : 15.2 MiB (0%)
Title                       : English
Language                    : English
Default                     : No
Forced                      : No

Text #2
ID                          : 4
Format                      : PGS
Muxing mode                 : zlib
Codec ID                    : S_HDMV/PGS
Codec ID/Info               : Picture based subtitle format used on BDs/HD-DVDs
Duration                    : 2 h 41 min
Bit rate                    : 14.0 kb/s
Count of elements           : 4207
Stream size                 : 16.1 MiB (0%)
Title                       : Turkish
Language                    : Turkish
Default                     : Yes
Forced                      : No

[Image: vlcsnap-error127-jpg-0349e82da1fe23d1959...7d08db.jpg]

[Image: vlcsnap-error725-jpg-3a029bf8ca284b3cf7e...e0fe5d.jpg]

[Image: tdown.png]

For Only Vip Members

Senna (2010) Bluray Remux 1080p VC-1 DTS-HD MA 5.1 VIP
Reply


Possibly Related Threads…
Thread Author Replies Views Last Post
  Senna (2010) DVD5 AbrA 0 82 04-17-2021, 10:55 AM
Last Post: AbrA

Forum Jump:


Users browsing this thread: 1 Guest(s)

Powered By MyBB
RSS RSS Syndication
Updated By iAndrew | 2021